<?xml version="1.0" standalone="no"?>
<!DOCTYPE svg PUBLIC "-//W3C//DTD SVG 1.1//EN" "http://www.w3.org/Graphics/SVG/1.1/DTD/svg11.dtd">
<svg xmlns="http://www.w3.org/2000/svg">
<defs >
<font id="CrimsonText" horiz-adv-x="513" ><font-face
    font-family="Crimson Text SemiBold"
    units-per-em="1024"
    panose-1="2 0 7 3 0 0 0 0 0 0"
    ascent="1050"
    descent="-248"
    alphabetic="0" />
<glyph unicode=" " glyph-name="space" horiz-adv-x="209" />
<glyph unicode="!" glyph-name="exclam" horiz-adv-x="178" d="M92 642Q115 642 130 623T145 576Q145 565 139 510T124 365T109 201Q108 186 102 179T81 169Q77 168 74 174T68 191Q62 267 53 357T39 501T33 577Q33 605 50 623T92 642ZM23 56Q23 83 42 101T89 120Q117
120 136 102T155 56T137 9T91 -12Q65 -12 44 8T23 56Z" />
<glyph unicode="&quot;" glyph-name="quotedbl" horiz-adv-x="321" d="M83 698H99Q114 698 121 686T129 633Q129 603 115 541T98 449Q96 434 80 434T62 447Q57 494 43 555T28 635Q28 650 46 674T83 698ZM246 698H263Q277 698 284 686T292 633Q292 603 277 542T259
449Q258 434 241 434Q228 434 226 447Q221 494 207 555T192 635Q192 651 210 674T246 698Z" />
<glyph unicode="#" glyph-name="numbersign" horiz-adv-x="472" d="M305 24Q305 24 302 20Q296 15 275 15H257Q251 15 248 17T244 22V24L266 173H178L156 24Q156 22 156 21T148 18T125 15H107Q101 15 98 17T94 22L93 24L116 173H32Q26 173 26 183Q26 202 34 229Q35
232 36 233T40 234H41H125L137 314H32Q26 315 26 325Q26 344 34 371Q35 374 36 375T40 376H41H146L170 530Q170 539 222 539Q228 539 230 537T232 532V530L209 376H297L321 530Q321 539 373 539Q379 539 381 537T384 532L383 530L359 376H439Q440 376 441 376T444
375T446 369Q446 350 437 321L431 314H350L337 234H439Q440 234 441 234T444 233T446 227Q446 208 437 179Q436 176 435 175T432 173H431H329L305 24ZM276 234L288 314H200L187 234H276Z" />
<glyph unicode="$" glyph-name="dollar" horiz-adv-x="457" d="M266 676Q302 676 302 668L186 -46Q148 -46 148 -37L266 676ZM230 644Q258 644 288 639T346 627T379 620Q396 532 396 471Q393 462 377 462Q356 463 355 471Q354 481 346 500T323 541T283 579T228
596Q183 596 159 573T134 506Q134 467 164 437T254 370Q261 366 280 355T306 339T330 324T354 307T375 290T394 270T409 250T422 226T429 200T432 170Q432 93 367 43T218 -8Q200 -8 182 -7T142 -2T109 4T74 10T50 16Q30 82 25 170Q24 180 42 180Q60 180 68 174Q73
154 82 135T109 92T155 53T222 38Q264 38 294 66T324 143Q324 165 316 183T288 217T255 243T215 268Q211 270 202 275Q168 294 151 304T107 335T67 373T44 415T33 470Q33 544 93 594T230 644Z" />
<glyph unicode="%" glyph-name="percent" horiz-adv-x="645" d="M169 613Q135 613 119 580T103 503Q103 449 124 406T183 363Q217 363 232 394T247 471Q247 527 228 570T169 613ZM111 643T176 643T285 597T329 486Q329 423 286 377T176 331Q112 331 68 376T23
486T67 597ZM463 278Q429 278 412 245T395 169Q395 115 416 72T475 28Q509 28 524 60T539 137Q539 193 521 235T463 278ZM404 309T469 309T577 263T621 152Q621 89 578 43T469 -3Q405 -3 360 42T315 152T359 263ZM593 626L111 4Q103 -8 77 -8Q52 -8 49 4L531 628Q542
641 550 641Q574 641 593 626Z" />
<glyph unicode="&amp;" glyph-name="ampersand" horiz-adv-x="681" d="M359 98Q338 120 302 171T239 262L213 301Q177 276 158 247T138 168Q138 108 172 78T256 48Q284 48 312 62T359 98ZM288 612Q256 612 238 589T220 534Q220 486 270 396Q315 424 335 451T356
527Q356 559 338 585T288 612ZM286 656Q358 656 400 624T443 538Q443 477 406 435T298 350Q349 266 428 172Q483 248 483 266Q483 276 474 279T452 283T438 284Q435 290 435 300T438 312H530Q549 312 640 316Q645 313 645 300Q645 284 638 282Q626 282 603 277T570
264Q566 262 549 239T507 182T464 127Q466 124 476 113T491 98T504 86T519 74T532 67T547 64Q564 64 581 81T606 112Q614 112 623 105T632 92Q629 85 621 72T598 42T560 11T510 -2Q480 -2 451 14T408 46L394 62Q319 -4 222 -4Q137 -4 82 38T26 160Q26 195 39 225T79
279T127 318T182 352Q181 353 174 365T166 379T158 393T150 408T143 423T137 440T132 456T127 473T125 490T124 510Q124 576 170 616T286 656Z" />
<glyph unicode="&apos;" glyph-name="quotesingle" horiz-adv-x="201" d="M105 698H122Q137 698 144 686T152 633Q152 603 137 542T118 449Q116 434 100 434Q87 434 85 447Q80 494 66 555T51 635Q51 651 69 674T105 698Z" />
<glyph unicode="(" glyph-name="parenleft" horiz-adv-x="281" d="M121 305Q121 158 170 39T257 -100Q259 -101 259 -106Q259 -112 256 -120T247 -129Q228 -129 193 -96T120 -9T55 131T27 305Q27 395 53 481T116 623T189 714T247 748Q252 748 255 739T259 722Q259
720 258 720Q209 692 165 570T121 305Z" />
<glyph unicode=")" glyph-name="parenright" horiz-adv-x="282" d="M160 305Q160 448 116 570T24 720Q22 720 22 722Q22 728 26 738T35 748Q58 748 94 713T166 622T229 480T255 305Q255 218 228 134T164 -5T92 -95T35 -129Q30 -129 26 -121T22 -106Q22 -101 24
-100Q62 -81 111 39T160 305Z" />
<glyph unicode="*" glyph-name="asterisk" horiz-adv-x="415" d="M294 618Q307 631 323 633T351 624Q362 612 361 596T346 567Q330 552 297 534T249 502Q243 499 245 491Q246 485 253 483Q269 475 306 469T363 452Q380 444 386 429T386 400Q378 386 363 382T330
387Q312 397 284 423T238 460Q231 464 227 461Q221 458 221 452Q219 434 224 397T226 338Q223 320 211 308T183 299Q167 302 159 316T154 348Q158 369 174 404T194 458Q194 468 193 469Q189 473 181 470Q163 467 130 451T75 431Q57 428 42 436T24 460Q22 476 32
488T62 503Q83 506 121 501T179 498Q188 498 189 504Q190 509 187 515Q178 531 153 558T117 605Q108 621 111 637T129 661Q144 668 159 662T181 638Q190 618 197 581T213 526Q213 524 215 521T221 517Q225 517 231 523Q243 536 260 569T294 618Z" />
<glyph unicode="+" glyph-name="plus" horiz-adv-x="531" d="M297 211V23Q290 13 245 7Q243 7 242 7T239 6Q233 6 233 14V209Q233 214 227 214H32Q26 214 26 224Q26 246 34 273Q35 276 36 277T40 278H41H228Q233 278 233 284V470Q232 475 238 477Q265 485 287
485L297 479V283Q297 278 301 278H497Q505 278 505 272Q505 257 495 220Q494 217 493 216T490 214H488H301Q297 214 297 211Z" />
<glyph unicode="," glyph-name="comma" horiz-adv-x="213" d="M92 -16Q92 0 77 25T62 69Q62 90 83 111T138 132Q160 132 170 126Q184 98 184 56Q184 36 176 8Q160 -48 133 -84T48 -166H47Q42 -166 33 -156T24 -138Q24 -137 41 -122T75 -79T92 -16Z" />
<glyph unicode="-" glyph-name="hyphen" horiz-adv-x="324" d="M31 207Q31 264 43 264H44L285 276H286Q292 276 292 267Q292 245 289 230T282 211L279 207L38 196Q37 196 36 196T33 199T31 207Z" />
<glyph unicode="." glyph-name="period" horiz-adv-x="191" d="M163 83T163 56T144 9T97 -12Q69 -12 49 8T29 56T49 103T97 123Q124 123 143 103Z" />
<glyph unicode="/" glyph-name="slash" horiz-adv-x="416" d="M395 755L99 -12Q97 -19 80 -27T39 -35Q32 -35 28 -34T22 -30L21 -28L317 739Q327 761 366 761Q383 761 395 755Z" />
<glyph unicode="0" glyph-name="zero" horiz-adv-x="503" d="M143 316Q143 199 175 120T254 41Q304 41 332 120T361 321Q361 439 332 514T254 590Q205 590 174 513T143 316ZM27 185T27 315T94 539T253 633Q343 633 409 539T476 315T410 91T253 -3Q162 -3 95 91Z" />
<glyph unicode="1" glyph-name="one" horiz-adv-x="400" d="M76 482Q70 485 65 493T60 507Q60 514 62 516Q111 549 159 579T234 626T262 642H264Q272 642 276 624Q267 592 267 530V132Q267 82 275 52Q277 44 302 37T337 30Q340 30 340 10Q340 0 339 -4Q337 -3
287 0T213 3T141 0T89 -4Q85 0 85 15T89 30Q100 30 126 37T154 52Q160 76 160 110V458Q160 482 158 495T152 512T143 516Q140 516 134 514T119 507T105 499T89 490T76 482Z" />
<glyph unicode="2" glyph-name="two" horiz-adv-x="465" d="M236 642Q307 642 351 594T395 474Q395 445 385 413T363 354T326 294T284 240T234 186T188 139T141 95Q138 93 139 90T144 87H326Q349 87 364 99T386 126T400 170Q403 179 416 179Q429 179 436 174Q408
41 403 15Q401 0 387 0H40Q29 6 28 32Q131 140 206 259T282 455Q282 504 257 535T190 566Q177 566 164 563T141 556T122 545T106 533T92 519T82 507T75 496T70 488Q63 488 55 495T46 509Q52 524 65 543T100 586T159 626T236 642Z" />
<glyph unicode="3" glyph-name="three" horiz-adv-x="455" d="M244 642Q287 642 325 610T364 520Q364 438 280 378Q299 375 322 363T368 330T406 278T422 210Q422 145 385 95T290 21T167 -4Q92 -4 44 28Q36 38 36 56Q36 79 45 94T75 110Q83 110 92 106T105 97T120
83T132 70Q161 42 206 42Q250 42 281 77T312 184Q312 242 279 281T196 320Q170 320 136 314Q128 323 128 342Q128 350 131 354Q194 365 231 401T268 494Q268 532 245 555T194 578Q180 578 167 575T145 567T127 557T114 547T104 537T98 531Q93 531 87 540T80 558Q141
642 244 642Z" />
<glyph unicode="4" glyph-name="four" horiz-adv-x="473" d="M369 644Q385 644 385 634V238H436Q452 238 452 184Q452 179 444 174Q444 174 385 174V2Q371 -6 331 -6Q283 -6 283 5V174H32Q21 187 21 214Q55 254 189 430T344 632Q355 644 369 644ZM283 238V472Q283
480 279 480L277 478L104 250Q103 249 103 247Q103 238 110 238H283Z" />
<glyph unicode="5" glyph-name="five" horiz-adv-x="451" d="M118 630Q333 634 362 640Q369 631 369 612Q369 572 360 548Q308 543 235 541T158 539Q150 538 148 530Q141 490 124 395Q161 406 212 406Q291 406 354 351T417 220Q417 123 345 60T165 -4Q88 -4 40
28Q32 39 32 57Q32 79 41 94T71 110Q79 110 88 106T101 98T116 83T128 70Q157 42 204 42Q249 42 277 81T306 182Q306 243 273 284T178 326Q127 326 84 313Q73 318 66 327Q72 363 93 486T118 630Z" />
<glyph unicode="6" glyph-name="six" horiz-adv-x="457" d="M139 200Q139 130 165 85T235 40Q275 40 298 75T321 176Q321 243 295 282T214 322Q193 322 174 312T150 286Q140 256 139 200ZM229 -6Q146 -6 87 55T28 205Q28 284 60 356T145 483T260 578T390 646Q398
645 403 635T410 616Q319 576 253 513T161 364Q157 352 162 349Q163 349 164 350Q177 357 203 365T251 374Q325 374 377 318T430 190Q430 111 370 53T229 -6Z" />
<glyph unicode="7" glyph-name="seven" horiz-adv-x="462" d="M132 544Q120 544 110 538T94 527T81 506T72 485T64 462Q63 457 47 456T25 459Q59 603 62 624Q65 636 80 636H372Q387 636 412 637T439 638Q446 638 446 630Q446 618 418 562L149 -6Q146 -8 140 -8Q128
-8 117 2T105 22L365 544H132Z" />
<glyph unicode="8" glyph-name="eight" horiz-adv-x="459" d="M230 36Q271 36 295 64T320 136Q320 206 210 280Q207 282 206 282Q200 286 196 286Q193 286 192 286Q138 253 138 158Q138 107 164 72T230 36ZM229 594Q196 594 177 567T157 493Q157 465 173 440T204
404T244 376Q249 373 254 373Q257 373 260 375Q310 413 310 484Q310 531 289 562T229 594ZM230 638Q304 638 357 598T410 490Q410 411 300 342Q297 342 297 340T300 336Q319 324 338 309T379 272T414 223T428 168Q428 93 367 43T226 -8Q142 -8 87 35T32 156Q32
182 42 206T64 245T97 277T127 300T155 316Q157 318 157 320T154 324Q136 337 122 349T91 381T65 427T55 483Q55 547 108 592T230 638Z" />
<glyph unicode="9" glyph-name="nine" horiz-adv-x="454" d="M317 440Q317 510 291 555T219 600Q180 600 158 565T135 462Q135 397 161 358T242 318Q263 318 282 328T306 354Q316 383 317 440ZM227 646Q310 646 368 585T427 435Q427 356 395 283T311 154T199 59T77
-6Q69 -5 63 7T57 26Q137 59 203 125T294 276Q298 288 293 291Q292 291 291 290Q281 282 256 275T209 267Q133 267 80 321T27 449Q27 528 87 587T227 646Z" />
<glyph unicode=":" glyph-name="colon" horiz-adv-x="190" d="M163 392T163 365T144 317T97 296Q69 296 49 317T29 365T49 411T97 431Q124 431 143 412ZM163 83T163 56T144 9T97 -12Q69 -12 49 8T29 56T49 103T97 123Q124 123 143 103Z" />
<glyph unicode=";" glyph-name="semicolon" horiz-adv-x="215" d="M90 -16Q90 0 75 25T60 69Q60 90 81 111T136 132Q158 132 168 126Q182 98 182 56Q182 36 174 8Q158 -48 131 -84T46 -166H45Q40 -166 31 -156T22 -138Q22 -137 39 -122T73 -79T90 -16ZM188 392T188
365T169 317T122 296Q94 296 74 317T54 365T74 411T122 431Q149 431 168 412Z" />
<glyph unicode="&lt;" glyph-name="less" horiz-adv-x="464" d="M439 40Q439 33 433 9T423 -15Q422 -15 418 -13L43 177Q25 187 25 217Q25 232 43 241L414 428Q418 430 419 430Q426 430 436 378L433 369L111 209L436 46Q439 45 439 40Z" />
<glyph unicode="=" glyph-name="equal" horiz-adv-x="528" d="M499 172Q499 156 489 119Q488 116 487 115T484 113H483H38Q31 113 31 123Q31 141 40 172Q41 175 42 176T46 177H47H491Q499 177 499 172ZM31 265Q36 319 46 319H495Q499 319 499 314Q499 298 489
261Q488 258 487 257T484 255H483H38Q31 255 31 265Z" />
<glyph unicode="&gt;" glyph-name="greater" horiz-adv-x="466" d="M26 40Q26 40 29 46L354 209L32 369Q32 369 29 378Q39 430 46 430Q47 430 51 428L422 241Q440 232 440 217Q440 187 422 177L47 -13Q43 -15 42 -15Q38 -15 32 9T26 40Z" />
<glyph unicode="?" glyph-name="question" horiz-adv-x="326" d="M76 644Q166 644 234 593T303 460Q303 396 276 361T193 298Q189 296 179 291T163 284T150 276T136 268T126 260T117 251T113 242Q110 234 110 213T108 187Q101 176 82 176Q68 176 68 262Q68 312
79 332T125 376Q132 381 155 393T193 415T222 443T236 482Q236 511 215 531T165 551Q150 551 125 546T85 541Q61 541 43 556T25 594Q25 612 31 632Q57 644 76 644ZM158 83T158 56T139 9T92 -12Q64 -12 44 8T24 56T44 103T92 123Q119 123 138 103Z" />
<glyph unicode="@" glyph-name="at" horiz-adv-x="781" d="M698 214Q698 344 622 434T421 524Q283 524 189 439T94 223Q94 65 179 -30T444 -126Q454 -126 467 -124T488 -118T505 -112L514 -108Q516 -117 516 -118Q516 -138 483 -154T389 -171Q311 -171 242 -138T127
-54T54 61T27 185Q27 365 143 471T432 577Q504 577 566 546T668 464T731 354T754 233Q754 164 737 114T692 37T634 -1T572 -13Q523 -13 490 17T456 80Q456 81 454 80T451 78Q437 51 394 22T310 -7Q257 -7 227 39T196 141Q196 248 272 329T476 410L571 401Q566 369
564 348L541 134Q539 114 539 106Q538 30 582 30Q617 30 642 50T678 103T693 162T698 214ZM472 334Q472 342 470 346T458 355T430 359Q376 359 333 301T290 143Q290 53 338 53Q374 53 414 102T456 176L470 322Q472 328 472 334Z" />
<glyph unicode="A" glyph-name="A" horiz-adv-x="736" d="M391 660L601 136Q616 96 631 63Q637 48 663 39T701 30Q705 30 705 12Q705 0 703 -3Q583 3 577 3Q570 3 447 -3Q443 1 443 15T447 30Q459 30 480 36T505 50Q508 56 508 63Q508 83 489 132L454 225Q450
229 447 229Q415 231 361 231T247 228Q241 228 241 224L203 131Q184 79 184 66T195 46Q204 40 226 35T257 30Q260 29 260 16T258 -3Q253 -3 211 0T143 3T82 1T31 -3Q27 1 27 12Q27 30 29 30Q41 30 67 38T101 58Q120 88 139 136L325 586Q348 646 362 658Q370 665
379 665Q386 665 391 660ZM271 288Q306 285 343 285Q378 285 425 288L427 292L351 492L269 292Q269 288 271 288Z" />
<glyph unicode="B" glyph-name="B" horiz-adv-x="586" d="M437 176Q437 240 402 281T287 323Q258 323 225 318Q217 313 217 298V112Q217 70 229 60Q242 50 293 50Q315 50 336 54T381 70T421 109T437 176ZM104 143V521Q104 581 97 603Q94 614 69 621T29 628Q25
628 25 643Q25 657 29 661Q95 658 162 658Q213 658 248 658T308 659Q344 659 380 650T450 623T505 569T527 488Q527 452 506 421T467 378T435 360Q427 357 431 354Q468 348 513 302T559 187Q559 101 490 50T305 0L163 1L30 -3Q27 0 27 13Q27 30 30 30Q43 30 68
36T97 52Q104 73 104 143ZM333 378Q406 394 406 476Q406 611 291 611Q244 611 227 606Q219 604 219 595L217 499V382Q217 372 277 372Q314 372 333 378Z" />
<glyph unicode="C" glyph-name="C" horiz-adv-x="639" d="M613 182Q613 169 598 105T575 36Q488 -6 343 -6Q211 -6 118 91T25 322Q25 464 120 565T354 667Q467 667 590 640Q593 639 596 575T599 494Q599 479 575 479Q569 479 561 483Q557 501 547 520T515 563T453
602T358 618Q260 618 206 537T151 343Q151 217 212 130T386 42Q475 42 527 98Q540 112 550 135T566 175T574 191Q609 191 613 182Z" />
<glyph unicode="D" glyph-name="D" horiz-adv-x="708" d="M162 658Q162 658 335 658Q498 658 589 562T681 336Q681 192 589 95T334 -3Q313 -3 252 -1T163 1L30 -3Q27 0 27 13Q27 30 30 30Q43 30 68 36T97 52Q104 73 104 143V521Q104 581 97 603Q94 614 69 621T29
628Q25 628 25 643Q25 657 29 661Q95 658 162 658ZM217 530V138Q217 82 228 64Q244 48 350 48Q553 48 553 340Q553 452 499 530T343 608H338Q242 608 230 592Q217 574 217 530Z" />
<glyph unicode="E" glyph-name="E" horiz-adv-x="584" d="M162 657Q206 657 317 660T485 664Q489 634 501 581T514 522Q509 517 493 517Q482 517 479 524Q446 613 351 613H299Q225 613 223 600Q217 572 217 519V362Q217 356 261 356H313Q314 356 317 356Q375 356
386 361T403 396Q406 411 409 421Q410 428 425 428Q439 428 444 423V234Q440 230 425 230Q412 230 409 238Q402 265 397 278T390 292T381 298Q368 306 289 306Q217 306 217 298V143Q217 88 226 62Q231 49 294 49H331Q409 49 450 70Q466 78 486 105T517 166Q518
172 531 172Q553 172 559 166Q556 157 545 125T527 77T514 36T505 -3Q465 -3 340 0T163 1L30 -3Q27 0 27 13Q27 30 30 30Q43 30 68 36T97 52Q104 73 104 143V521Q104 581 97 603Q94 614 69 621T29 628Q25 628 25 643Q25 657 29 661Q95 657 162 657Z" />
<glyph unicode="F" glyph-name="F" horiz-adv-x="538" d="M167 3Q137 3 103 2T50 -2L30 -3Q27 0 27 13Q27 30 30 30Q43 30 68 36T97 52Q104 73 104 143V521Q104 581 97 603Q94 614 69 621T29 628Q25 628 25 643Q25 657 29 661Q94 657 161 657Q208 656 319 660T484
664Q488 634 500 581T513 522Q508 517 492 517Q481 517 478 524Q445 613 350 613H298Q224 613 222 600Q217 576 217 519V362Q217 356 261 356H312Q313 356 316 356Q374 356 385 361T402 396Q405 411 408 421Q409 428 424 428Q438 428 443 423V234Q439 230 424 230Q411
230 408 238Q401 265 396 278T389 292T380 298Q367 306 288 306Q217 306 217 298V141Q217 87 228 58Q232 48 264 39T307 30Q312 30 312 13Q312 1 309 -3Q189 3 167 3Z" />
<glyph unicode="G" glyph-name="G" horiz-adv-x="702" d="M25 322Q25 463 121 565T354 667Q442 667 586 630Q589 629 594 564T600 486T580 474Q566 474 558 480Q555 494 550 508T530 543T495 580T439 606T358 618Q260 618 205 540T150 340Q150 268 175 202T256
89T386 42Q449 42 482 61Q492 68 492 84L491 156V163Q491 223 484 244Q480 257 455 263T412 269Q408 269 408 283T412 302Q423 302 472 299T552 296Q553 296 673 302Q676 293 676 285Q676 268 672 268Q666 268 646 262T616 252Q603 244 603 179Q603 158 603 137T604
114Q604 96 609 83T614 68Q614 54 592 44Q552 26 533 19T461 2T342 -8Q210 -8 118 90T25 322Z" />
<glyph unicode="H" glyph-name="H" horiz-adv-x="708" d="M673 30Q677 30 677 11Q677 3 675 -3Q555 3 548 3Q528 3 506 2T458 0T415 -3Q411 1 411 11Q411 30 415 30Q427 30 452 37T481 52Q489 83 489 136V308L487 312Q393 314 355 314Q217 312 217 309V142Q217
87 226 52Q228 45 253 38T288 30Q292 30 292 11Q292 3 290 -3Q170 3 163 3Q143 3 121 2T73 0T30 -3Q26 1 26 11Q26 30 30 30Q42 30 67 37T96 52Q104 83 104 136V522Q104 582 96 606Q92 614 68 621T32 629Q28 629 28 644Q28 660 30 662Q35 662 85 659T163 656Q171
656 291 662Q294 653 294 646Q294 629 290 629Q281 629 254 621T225 606Q217 575 217 518V372L219 369Q317 367 355 367Q397 367 487 369Q489 371 489 373V522Q489 582 481 606Q477 614 453 621T417 629Q413 629 413 644Q413 660 415 662Q420 662 470 659T548 656Q556
656 676 662Q679 653 679 646Q679 629 675 629Q666 629 639 621T610 606Q602 575 602 518V142Q602 87 611 52Q613 45 638 38T673 30Z" />
<glyph unicode="I" glyph-name="I" horiz-adv-x="323" d="M104 522Q104 582 96 606Q92 614 68 621T32 629Q28 629 28 644Q28 660 30 662Q35 662 85 659T163 656Q171 656 291 662Q294 653 294 646Q294 629 290 629Q281 629 254 621T225 606Q217 575 217 518V142Q217
87 226 52Q228 45 253 38T288 30Q292 30 292 11Q292 3 290 -3Q170 3 163 3Q143 3 121 2T73 0T30 -3Q26 1 26 11Q26 30 30 30Q42 30 67 37T96 52Q104 83 104 136V522Z" />
<glyph unicode="J" glyph-name="J" horiz-adv-x="466" d="M364 518V114Q364 -34 289 -128T91 -222Q76 -222 58 -216T36 -206Q23 -189 23 -161Q23 -138 42 -122T86 -106Q107 -106 131 -132T170 -158Q207 -158 228 -90T250 106V524Q250 580 243 606Q240 618 216
623T175 629Q171 629 171 644Q171 660 173 662Q188 661 216 660T267 657T310 656Q317 656 437 662Q440 653 440 646Q440 629 436 629Q427 629 401 621T372 606Q364 575 364 518Z" />
<glyph unicode="K" glyph-name="K" horiz-adv-x="722" d="M217 518V357Q217 354 218 353T222 350H223H231Q252 350 283 384Q363 470 459 584Q475 603 475 614Q475 624 453 628T416 632Q412 632 411 643T412 662Q523 656 533 656Q552 656 570 657T610 659T646 662Q648
658 648 645T644 632Q574 624 543 590L357 378Q346 365 359 350L593 72Q611 50 641 40T686 30Q691 30 691 11Q691 3 688 -3Q568 3 551 3Q519 3 475 1T412 -3Q408 1 408 15T412 30Q423 30 440 37T457 52Q457 57 429 94T352 188T255 296Q251 300 233 300Q217 300
217 288V140Q217 87 226 52Q228 45 253 38T288 30Q292 30 292 11Q292 3 290 -3Q170 3 163 3Q143 3 121 2T73 0T30 -3Q26 1 26 11Q26 30 30 30Q42 30 67 37T96 52Q104 83 104 136V522Q104 582 96 606Q92 614 68 621T32 629Q28 629 28 644Q28 660 30 662Q35 662 85
659T163 656Q171 656 291 662Q294 653 294 646Q294 629 290 629Q281 629 254 621T225 606Q217 575 217 518Z" />
<glyph unicode="L" glyph-name="L" horiz-adv-x="584" d="M217 518V142Q217 93 226 62Q231 49 294 49H331Q409 49 450 70Q466 78 486 105T517 166Q518 172 531 172Q553 172 559 166Q556 157 545 125T527 77T514 36T505 -3Q465 -3 340 0T163 1L30 -3Q27 0 27 13Q27
30 30 30Q43 30 68 36T97 52Q104 73 104 143V521Q104 582 96 606Q92 614 68 621T32 629Q28 629 28 644Q28 660 30 662Q35 662 85 659T163 656Q171 656 291 662Q294 653 294 646Q294 629 290 629Q281 629 254 621T225 606Q217 575 217 518Z" />
<glyph unicode="M" glyph-name="M" horiz-adv-x="913" d="M178 656Q183 656 276 662Q285 634 317 559T395 375T470 196Q470 194 473 194T476 197Q564 408 616 544L652 660Q682 657 734 657Q773 657 853 662Q856 658 856 646Q856 629 852 629H850Q823 629 801 613Q786
602 788 559Q792 470 802 146Q803 92 818 54Q822 45 846 38T880 30Q884 30 884 12Q884 3 882 -3Q762 3 759 3Q739 3 717 2T669 0T626 -3Q622 1 622 12Q622 30 626 30Q637 30 658 36T686 51Q696 64 696 86V142L686 446Q682 508 674 508Q671 508 669 502L478 36Q461
-2 440 -2Q436 -2 430 0L206 538Q199 289 190 92Q190 70 193 61Q198 50 233 40T280 30Q284 30 284 12Q284 3 282 -3Q162 3 156 3Q129 3 85 0T30 -3Q26 1 26 13Q26 30 30 30Q46 30 80 40T119 66Q128 84 130 133Q132 209 135 312T141 489T144 580Q144 599 141 608Q138
616 108 623T64 630Q60 630 60 647Q60 658 64 662Q79 661 115 659T178 656Z" />
<glyph unicode="N" glyph-name="N" horiz-adv-x="753" d="M571 523Q571 576 561 603Q556 615 528 622T483 629Q479 629 479 643T481 662Q588 655 607 655Q633 655 674 658T725 662Q727 658 727 646Q727 629 723 629Q709 629 680 622T642 601Q631 574 631 518V139Q631
103 635 -1Q631 -5 613 -5Q597 -5 581 18L183 546V141Q183 81 191 59Q196 47 228 39T273 30Q276 30 276 16T275 -3Q155 3 150 3Q123 3 84 1T31 -3Q27 1 27 14Q27 30 31 30Q48 30 76 37T113 60Q123 81 123 144V536Q123 590 112 609Q108 616 78 622T33 628Q29 628
29 643T32 662Q137 657 151 657Q184 657 241 662Q260 626 310 556T449 370T569 210Q571 222 571 251V523Z" />
<glyph unicode="O" glyph-name="O" horiz-adv-x="693" d="M330 618Q244 618 199 540T153 350Q153 275 173 207T243 90T361 40Q446 40 492 119T539 309Q539 386 519 453T450 569T330 618ZM25 188T25 328T119 567T345 667T571 568T666 328T572 89T345 -10T119 89Z" />
<glyph unicode="P" glyph-name="P" horiz-adv-x="546" d="M163 658Q192 658 230 659T298 661Q328 661 357 656T416 636T468 602T505 549T520 478Q520 431 496 386T422 310T310 278Q289 278 268 285T239 304Q237 306 236 314T235 329T238 336Q261 326 294 326Q342
326 370 365T398 465Q398 532 371 571T288 610Q246 610 230 603Q218 597 218 499V142Q218 82 226 57Q229 45 259 38T304 30Q308 30 308 13Q308 2 306 -4Q196 2 164 2Q137 2 104 1T50 -2L30 -4Q27 0 27 14Q27 30 30 30Q43 30 68 36T98 52Q104 70 104 143V521Q104
578 98 603Q95 611 69 619T30 628Q26 628 26 643Q26 658 30 661Q135 658 163 658Z" />
<glyph unicode="Q" glyph-name="Q" horiz-adv-x="744" d="M328 614Q242 614 196 537T149 350Q149 276 170 208T240 91T360 42Q445 42 492 120T539 309Q539 366 527 418T491 515T424 587T328 614ZM667 -79Q685 -79 701 -77T727 -72T739 -70Q751 -70 751 -90V-95Q667
-140 568 -140Q531 -140 489 -123T413 -83T336 -36T258 0Q222 11 184 37T109 103T48 202T24 328Q24 420 67 498T183 621T343 667T504 622T621 498T664 328Q664 261 641 202T584 102T512 37T440 5Q466 -8 500 -27T552 -55T600 -71T667 -79Z" />
<glyph unicode="R" glyph-name="R" horiz-adv-x="685" d="M288 610Q246 610 230 603Q219 598 218 499V384Q218 362 235 355T282 348H308Q345 348 374 383T404 474Q404 610 288 610ZM304 660Q330 660 358 655T417 636T472 604T511 554T526 484Q526 430 491 382T406
314Q398 311 402 304Q458 203 514 134Q549 91 589 61T664 30Q668 24 668 14Q668 4 664 -4Q652 -6 633 -6Q582 -6 541 6T469 41T418 87T376 143Q362 163 344 190T317 231T295 262T275 286T258 297Q252 300 234 300Q218 300 218 283V142Q218 82 226 57Q229 45 259
38T304 30Q308 30 308 13Q308 2 306 -4Q196 2 164 2Q137 2 104 1T50 -2L30 -4Q27 0 27 14Q27 30 30 30Q43 30 68 36T98 52Q104 70 104 143V521Q104 578 98 603Q95 611 69 619T30 628Q26 628 26 643Q26 658 30 661Q136 658 163 658Q191 658 232 659T304 660Z" />
<glyph unicode="S" glyph-name="S" horiz-adv-x="474" d="M38 490Q38 565 101 616T243 668Q271 668 292 665T350 653T402 640Q414 572 414 486Q412 477 402 477Q375 477 373 486Q367 532 330 576T240 620Q194 620 170 594T145 524Q145 509 148 496T162 469T179
448T204 426T229 408T259 389T288 372Q294 367 321 351T360 327T392 301T422 267T440 227T448 174Q448 94 384 42T234 -10Q174 -10 50 18Q41 54 34 108T26 180Q27 188 42 188Q68 188 71 180Q75 162 85 141T112 95T159 55T226 39Q273 39 304 67T335 151Q335 168
329 184T314 211T289 235T261 255T229 274T198 292Q195 295 187 300Q158 318 143 328T105 357T69 394T48 436T38 490Z" />
<glyph unicode="T" glyph-name="T" horiz-adv-x="664" d="M288 656T331 656T442 658T551 662Q576 662 620 672L639 519Q632 512 612 512Q604 512 602 517Q588 572 565 591T493 611Q400 611 396 594Q387 565 387 500V139Q387 85 396 52Q397 45 423 38T458 30Q462
30 462 12Q462 2 460 -4Q447 -3 422 -1T375 2T333 3Q306 3 259 0T200 -4Q196 0 196 12Q196 30 200 30Q212 30 237 37T266 52Q274 79 274 135V497Q274 580 265 594Q257 611 170 611Q121 611 98 592T60 518Q59 512 50 512Q31 512 24 520L43 672Q87 662 112 662Q153
661 220 659Z" />
<glyph unicode="U" glyph-name="U" horiz-adv-x="733" d="M160 656Q178 656 288 662Q290 654 290 646Q290 629 286 629Q277 629 250 622T222 606Q214 576 214 518V288Q214 185 258 124T382 62Q459 62 505 112T552 280V524Q552 585 542 604Q536 613 507 621T464
630Q460 630 460 644T462 662Q570 655 588 655Q613 655 654 658T706 662Q708 655 708 646Q708 630 704 630Q690 630 661 623T623 602Q612 577 612 519V284Q612 206 593 150T539 61T460 13T358 -2Q238 -2 169 70T100 304V522Q100 586 92 606Q88 614 64 621T28 629Q24
629 24 644T27 662Q154 656 160 656Z" />
<glyph unicode="V" glyph-name="V" horiz-adv-x="715" d="M148 656Q162 656 285 662Q288 658 288 644T284 629Q276 629 263 627T236 616T222 594Q222 575 298 389Q310 357 318 340Q330 309 348 269T379 202T392 178L538 523Q558 570 558 592Q558 610 535 619T487
629Q483 629 483 643T486 662Q495 662 534 659T597 656Q623 656 657 658T706 662Q708 657 708 647Q708 630 706 630Q693 630 672 623T638 601Q623 577 595 513L387 26Q372 -10 348 -10Q338 -10 332 0L126 512Q103 572 88 601Q81 614 57 621T19 629Q15 629 15 644Q15
658 18 662Q25 662 73 659T148 656Z" />
<glyph unicode="W" glyph-name="W" horiz-adv-x="1078" d="M141 656Q152 656 262 662Q263 656 263 643T260 629Q253 629 244 628T224 619T212 598Q212 579 230 545L426 158Q429 153 433 155T440 162L513 304L406 520Q376 581 355 605Q346 615 329 622T297 629Q293
629 293 646Q293 659 296 662Q422 656 428 656Q436 656 546 662Q548 656 548 643T546 629Q537 629 528 627T508 618T498 598Q498 582 516 546L577 421L636 542Q654 578 654 597Q654 615 630 622T587 630Q583 630 583 644T586 662Q674 656 696 656Q719 656 737 657T777
659T811 662Q813 656 813 644T810 630Q798 630 774 621T739 600Q717 575 682 506L609 358L706 160Q712 150 719 165Q739 212 813 368T894 540Q912 578 912 596Q912 614 888 622T848 630Q844 630 844 644T847 662Q935 656 957 656T998 657T1036 659T1070 662Q1072
655 1072 642Q1072 630 1068 630Q1056 630 1034 622T1000 602Q973 571 942 507L713 22Q705 6 695 -2T676 -10Q670 -10 666 -6L544 240L430 22Q422 6 412 -2T394 -10Q388 -10 384 -6L119 520Q91 576 67 607Q59 617 40 623T8 629Q4 629 4 645Q4 659 7 662Q134 656
141 656Z" />
<glyph unicode="X" glyph-name="X" horiz-adv-x="752" d="M202 656Q228 656 338 662Q339 658 339 644T336 629Q319 629 299 623T279 602Q279 592 289 576L402 405Q411 417 435 447T473 495T505 537T531 575T540 598Q540 609 518 619T468 629Q464 629 464 643T467
662Q569 656 592 656Q605 656 715 662Q717 658 717 644T714 629Q699 629 667 621T621 595L433 357Q620 77 624 71Q640 50 667 40T716 30Q720 30 720 10Q720 2 718 -4Q608 2 592 2Q567 2 543 1T489 -1T440 -4Q436 0 436 15T441 30Q454 30 476 37T498 58Q498 63 494
69L354 282Q202 79 202 60Q202 49 222 40T273 30Q278 30 278 11Q278 0 276 -4Q179 2 153 2Q138 2 28 -4Q24 5 24 10Q24 30 28 30Q42 30 72 37T116 60L320 333L183 542Q147 599 123 614Q99 629 68 629Q65 629 65 643T68 662Q86 661 111 660T158 657T202 656Z" />
<glyph unicode="Y" glyph-name="Y" horiz-adv-x="657" d="M156 656Q174 656 294 662Q296 658 296 644T292 630Q276 630 256 623T236 602Q236 593 245 576L351 382Q356 377 361 384Q404 448 444 516T484 602Q484 613 466 621T417 630Q413 630 413 644T416 662Q517
656 536 656Q559 656 577 657T615 659T646 662Q648 654 648 646Q648 630 644 630Q629 630 603 621T564 597Q535 554 460 433T385 298V142Q385 83 393 52Q395 45 420 37T454 28Q458 28 458 12Q458 2 456 -4Q443 -3 418 -1T372 2T331 3Q304 3 258 0T200 -4Q196 0
196 12Q196 28 199 28Q211 28 236 36T264 52Q272 81 272 140V288Q272 293 266 307T243 351T215 402T176 472T136 543Q107 597 84 612Q74 619 55 624T26 630Q23 630 23 640T24 654Q48 656 156 656Z" />
<glyph unicode="Z" glyph-name="Z" horiz-adv-x="622" d="M224 656H333Q414 656 554 666Q557 665 560 653T564 633Q563 629 471 491T286 216L194 79Q188 68 188 64Q188 54 202 54H394Q512 54 555 173Q557 178 568 178Q588 178 596 170Q553 35 547 0H40Q32 9 32
26Q32 38 36 43L412 604H220Q184 603 160 596T121 571T98 535T80 484Q78 479 68 479Q42 479 36 486Q61 611 67 664Q77 661 140 659T224 656Z" />
<glyph unicode="[" glyph-name="bracketleft" horiz-adv-x="275" d="M53 756Q150 756 248 771Q254 771 254 758Q254 736 240 729Q227 722 194 715T133 708Q126 708 126 699V-50Q126 -58 133 -58Q183 -58 241 -83Q251 -87 251 -106Q251 -124 245 -124Q131 -106
53 -106Q35 -106 35 -83V732Q35 756 53 756Z" />
<glyph unicode="\" glyph-name="backslash" horiz-adv-x="409" d="M387 -6Q387 -23 377 -31T359 -39L335 -37L21 755Q29 761 43 761Q87 761 97 739L383 13Q387 7 387 -6Z" />
<glyph unicode="]" glyph-name="bracketright" horiz-adv-x="276" d="M222 756Q241 756 241 732V-83Q241 -106 222 -106Q144 -106 30 -124Q24 -124 24 -106Q24 -87 35 -83Q93 -58 142 -58Q150 -58 150 -50V699Q150 708 142 708Q114 708 82 715T36 729Q22 736 22
758Q22 771 28 771Q126 756 222 756Z" />
<glyph unicode="^" glyph-name="asciicircum" horiz-adv-x="388" d="M347 472Q334 472 288 510T207 590Q176 550 129 511T69 472Q65 472 62 479T57 492L56 499Q57 502 81 524T138 588T193 677Q194 679 195 682T196 687T198 689T203 690Q212 690 217 685T227 670T245
637T278 588Q288 575 308 554T343 518T360 500Q360 495 356 484T347 472Z" />
<glyph unicode="_" glyph-name="underscore" horiz-adv-x="585" d="M61 -33Q66 13 76 13H525Q529 13 529 8Q529 0 519 -37Q518 -40 517 -41T514 -43H513H68Q61 -43 61 -33Z" />
<glyph unicode="`" glyph-name="grave" horiz-adv-x="247" d="M44 660Q44 664 47 669T61 681T88 687Q113 687 122 678Q139 658 162 625T200 568T215 540Q215 535 210 530T200 524Q187 524 116 579T44 660Z" />
<glyph unicode="a" glyph-name="a" horiz-adv-x="452" d="M192 58Q219 58 238 72T258 104V206Q251 203 229 196T194 184T166 170T143 148T135 120Q135 88 151 73T192 58ZM237 442Q299 442 330 410T361 298V101Q361 81 370 71T394 60Q409 60 428 73Q434 71 434
62Q434 42 428 32Q413 20 388 7T340 -6Q317 -6 295 11T266 48Q265 47 259 42T241 28T215 12T181 -1T141 -7Q91 -7 60 20T28 96Q28 120 39 141T67 175T110 202T156 221T206 237T249 250Q258 254 258 266V321Q258 356 242 376T199 396Q169 396 152 378T135 325Q135
305 120 296T86 286Q49 286 34 310Q34 358 99 400T237 442Z" />
<glyph unicode="b" glyph-name="b" horiz-adv-x="525" d="M282 442Q344 442 393 411T468 331T494 230Q494 132 425 63T264 -7Q222 -7 191 0T144 8Q135 8 118 1T98 -6Q95 -6 84 0T72 10Q72 13 74 28T79 71T82 132V540Q82 578 76 608Q71 624 24 624H15Q9 624 9 640Q9
656 15 656Q46 659 74 664T120 674T152 684T173 691T181 694H183Q187 694 191 689T196 678Q185 639 185 584V424V423Q185 420 185 419T185 414T187 411T191 412Q205 422 231 432T282 442ZM260 388Q227 388 206 369T185 324V112Q185 77 211 59T274 41Q326 41 352
88T379 202Q379 288 348 338T260 388Z" />
<glyph unicode="c" glyph-name="c" horiz-adv-x="435" d="M242 442Q295 442 336 425T396 386Q396 352 385 330T350 307Q331 307 320 317T296 350Q273 396 229 396Q186 396 161 353T135 243Q135 153 172 110T266 66Q281 66 295 67T321 72T342 79T360 88T374 96T386
104T394 110Q396 109 399 104T402 94Q402 83 396 75Q381 48 337 21T239 -6Q150 -6 88 59T25 218Q25 309 85 375T242 442Z" />
<glyph unicode="d" glyph-name="d" horiz-adv-x="520" d="M243 396Q190 396 163 351T136 230Q136 145 167 98T254 50Q288 50 309 67T330 112V322Q330 332 327 343T315 366T288 387T243 396ZM252 444Q295 444 325 430Q330 430 330 446V540Q330 578 324 608Q319
624 272 624H264Q258 624 258 640Q258 656 264 656Q294 659 322 664T369 674T401 684T422 691T430 694H432Q436 694 440 689T444 678Q434 639 434 584V144Q434 98 440 70Q441 63 450 59T469 54T488 53T498 52Q500 50 500 40Q500 20 494 20Q480 19 459 16T417 10T378
3T348 -3T336 -6Q330 -6 330 11V28Q330 31 329 32T326 32Q278 -5 222 -5Q141 -5 81 54T21 204Q21 303 89 373T252 444Z" />
<glyph unicode="e" glyph-name="e" horiz-adv-x="436" d="M225 396Q201 396 182 382T153 348T139 311T134 281Q134 274 140 274H302Q311 274 311 289Q311 324 288 360T225 396ZM232 442Q279 442 316 424T374 377T406 318T417 259Q417 237 410 232T379 226H140Q133
226 133 220Q133 184 146 150T190 91T266 66Q281 66 295 67T321 72T342 79T360 88T374 96T386 104T394 110Q396 109 399 104T402 94Q402 83 396 75Q381 48 337 21T238 -6Q151 -6 88 58T25 215Q25 316 83 379T232 442Z" />
<glyph unicode="f" glyph-name="f" horiz-adv-x="349" d="M312 695Q354 695 381 685T418 659Q422 628 413 604T376 579Q359 579 346 595T317 628T282 645Q255 645 237 619T212 556T204 475V429Q204 428 206 426T210 424H320Q324 424 325 423T326 417Q326 395 314
371H210Q204 371 204 365V142Q204 83 212 52Q214 45 238 38T272 30Q275 30 275 16T274 -4Q268 -3 222 0T152 3Q128 3 84 0T32 -4Q29 -1 28 7T28 22T32 30Q43 30 67 37T93 52Q102 87 102 134V364Q102 371 96 371H36Q34 371 34 377Q34 388 48 406T80 424H96Q102 424
102 430V440Q102 545 164 620T312 695Z" />
<glyph unicode="g" glyph-name="g" horiz-adv-x="477" d="M356 -83Q356 -48 306 -37T170 -25Q168 -25 165 -26Q163 -27 160 -29Q147 -34 140 -37T124 -48T111 -66T106 -90Q106 -126 144 -150T229 -174Q285 -174 320 -148T356 -83ZM142 295Q142 246 162 213T218
179Q255 179 272 207T290 278Q290 331 270 364T212 397Q176 397 159 366T142 295ZM218 440Q254 440 301 427T381 414H438Q440 414 445 401T450 381Q450 367 444 367H379Q375 367 375 364Q375 363 384 338T393 290Q393 231 344 184T220 136Q184 136 158 140Q146
135 136 122T126 97Q126 87 135 80T165 70T199 66T239 64Q250 64 254 64Q354 61 400 37T447 -37Q448 -112 375 -167T206 -222Q133 -223 79 -194T24 -112Q24 -83 52 -56T114 -18Q88 -10 66 12T44 65Q44 108 118 154Q89 167 64 205T39 287Q39 358 91 399T218 440Z"
/>
<glyph unicode="h" glyph-name="h" horiz-adv-x="578" d="M354 442Q482 442 482 245V142Q482 81 490 52Q491 45 516 38T551 30Q554 30 554 16T554 -4Q547 -3 501 0T432 3Q407 3 365 0T312 -4Q309 0 309 15T312 30Q324 30 346 37T372 52Q378 82 378 125V223Q378
306 356 337T284 369Q254 369 229 352T204 314V142Q204 81 212 52Q214 45 238 38T272 30Q275 30 275 16T274 -4Q266 -3 222 0T154 3Q130 3 85 0T31 -4Q27 0 27 15T31 30Q43 30 67 37T94 52Q101 82 101 124V540Q101 580 96 608Q91 624 44 624H35Q29 624 29 640Q29
656 35 656Q66 659 94 664T140 674T172 684T193 691T201 694H203Q207 694 211 689T216 678Q204 639 204 584V382Q204 376 208 376Q209 376 212 379Q233 403 273 422T354 442Z" />
<glyph unicode="i" glyph-name="i" horiz-adv-x="300" d="M83 579T83 604T101 648T145 666T189 648T207 605T189 561T145 542T101 560ZM205 142Q205 81 213 52Q215 45 240 38T274 30Q278 30 278 16T277 -4Q270 -3 224 0T155 3Q130 3 85 0T32 -4Q28 0 28 15T32
30Q43 30 68 37T95 52Q102 82 102 125V288Q102 335 86 352Q77 362 63 367T39 373T29 376Q29 405 35 406Q63 408 116 418T195 436Q196 436 199 437T203 438Q208 438 211 431T213 420Q205 356 205 334V142Z" />
<glyph unicode="j" glyph-name="j" horiz-adv-x="280" d="M108 288Q108 335 92 352Q84 362 70 367T46 373T36 376Q36 405 42 406Q70 408 123 418T202 436Q203 436 206 437T210 438Q215 438 218 431T220 420Q212 352 212 334V94Q212 -43 168 -111Q144 -149 95 -183T17
-224Q4 -217 2 -205Q2 -204 2 -201T3 -196Q3 -196 9 -193T25 -183T45 -164T68 -132T88 -84T102 -17T108 72V288ZM87 579T87 604T105 648T149 666T193 648T211 605T193 561T149 542T105 560Z" />
<glyph unicode="k" glyph-name="k" horiz-adv-x="596" d="M445 375Q425 363 382 330T302 260Q331 229 375 179T448 97T488 56Q503 44 526 36T560 28Q564 28 564 11Q564 0 563 -3Q453 2 446 2Q427 2 408 1T365 -1T327 -4Q323 0 323 14T327 28Q337 28 350 32T363
42Q363 44 362 44L216 207L204 204V142Q205 77 212 52Q214 45 239 38T274 30Q277 30 277 16T276 -4Q269 -3 223 0T154 3Q130 3 85 0T31 -4Q27 0 27 15T31 30Q43 30 67 37T94 52Q101 82 101 125V540Q101 580 96 608Q91 624 44 624H35Q29 624 29 640Q29 656 35 656Q66
659 94 664T140 674T172 684T193 691T201 694H203Q207 694 211 689T216 678Q204 639 204 584V250Q228 256 234 261Q255 280 279 300T315 330T337 349T351 366T355 378Q355 389 333 391T310 395Q307 402 307 412T311 424Q387 424 408 424Q435 424 514 428Q518 425
519 417T519 402T514 395Q478 395 445 375Z" />
<glyph unicode="l" glyph-name="l" horiz-adv-x="295" d="M201 144Q201 82 208 54Q210 47 232 39T263 30Q266 30 266 16T265 -3Q251 -2 228 -1T185 2T149 3Q130 3 111 2T69 0T31 -3Q27 1 27 15T31 30Q42 30 64 38T89 54Q97 89 97 128V544Q97 582 91 612Q86 628
41 628H31Q25 628 25 640Q25 656 31 656Q62 659 90 664T136 674T168 683T190 691L197 694H199Q203 694 207 688T213 678Q201 640 201 584V144Z" />
<glyph unicode="m" glyph-name="m" horiz-adv-x="844" d="M354 442Q392 442 419 423T459 372Q488 402 532 422T626 442Q662 442 687 426T727 382T748 320T755 247V142Q755 81 762 52Q764 45 789 38T823 30Q826 30 826 16T825 -4Q818 -3 773 0T704 3Q680 3 636
0T582 -4Q579 0 579 15T582 30Q594 30 618 37T644 52Q651 82 651 122V224Q651 369 558 369Q525 369 503 353T477 322Q477 319 477 314T477 306Q480 284 480 244V138Q480 81 487 52Q489 45 514 38T548 30Q551 30 551 16T550 -4Q543 -3 498 0T429 3Q405 3 361 0T307
-4Q304 0 304 15T307 30Q319 30 343 37T369 52Q376 82 376 125V221Q376 299 353 334T285 369Q255 369 230 352T205 314V142Q205 81 213 52Q215 45 239 38T272 30Q276 30 276 16T275 -4Q267 -3 223 0T155 3Q130 3 85 0T32 -4Q28 0 28 15T32 30Q43 30 68 37T95 52Q102
82 102 125V288Q102 335 86 352Q78 362 64 367T39 373T29 376Q29 405 35 406Q81 410 195 436Q196 437 198 437T201 438T203 438Q208 438 211 431T213 420Q209 392 209 384Q209 380 211 379Q212 379 216 382Q240 406 277 424T354 442Z" />
<glyph unicode="n" glyph-name="n" horiz-adv-x="584" d="M354 442Q483 442 483 237V142Q483 81 490 52Q492 45 517 38T552 30Q555 30 555 16T554 -4Q548 -3 502 0T432 3Q408 3 366 0T314 -4Q310 0 310 15T314 30Q325 30 347 37T372 52Q380 82 380 125V220Q380
303 358 336T286 369Q254 369 230 352T206 314V142Q206 81 213 52Q215 45 239 38T272 30Q276 30 276 16T275 -4Q267 -3 223 0T155 3Q131 3 86 0T32 -4Q28 0 28 15T32 30Q44 30 68 37T95 52Q102 82 102 125V288Q102 335 86 352Q78 362 64 367T40 373T30 376Q30 405
35 406Q81 410 196 436Q197 437 198 437T201 438T204 438Q208 438 211 431T214 420Q210 392 210 384Q210 380 211 379Q212 379 216 382Q240 406 277 424T354 442Z" />
<glyph unicode="o" glyph-name="o" horiz-adv-x="507" d="M240 395Q193 395 167 350T141 241Q141 160 173 100T264 40Q311 40 337 86T364 194Q364 246 351 290T309 365T240 395ZM253 442Q347 442 413 377T480 218Q480 125 415 59T254 -7Q159 -7 93 59T27 218Q27
312 92 377T253 442Z" />
<glyph unicode="p" glyph-name="p" horiz-adv-x="540" d="M300 441Q364 441 414 408T488 328T512 230Q512 127 443 60T277 -8Q248 -8 206 6Q202 6 202 -8V-76Q202 -138 210 -166Q211 -174 236 -181T271 -189Q274 -189 274 -203T274 -222Q267 -222 221 -219T152
-216Q127 -216 82 -219T28 -222Q25 -218 25 -204T28 -189Q40 -189 64 -182T92 -166Q98 -137 98 -94V288Q98 336 82 353Q74 363 60 367T36 373T26 376Q26 405 32 406Q115 414 181 434Q181 434 190 436T200 439Q204 439 204 418Q204 414 202 406Q218 418 246 429T300
441ZM276 388Q243 388 223 369T202 318V112Q202 79 229 60T287 40Q333 40 364 82T396 200Q396 281 364 334T276 388Z" />
<glyph unicode="q" glyph-name="q" horiz-adv-x="487" d="M264 444Q304 444 337 437T384 429Q393 429 409 435T428 442Q432 442 444 436T456 426Q456 425 453 410T447 364T444 300V-83Q444 -138 451 -167Q453 -174 478 -182T512 -190Q516 -190 516 -204T515 -222Q508
-222 462 -219T393 -216Q369 -216 324 -219T270 -222Q266 -219 266 -205T270 -190Q282 -190 306 -182T333 -167Q340 -137 340 -94V12Q340 15 340 17T339 21T337 24T334 24Q284 -6 240 -6Q155 -6 93 57T31 208Q31 303 100 373T264 444ZM252 396Q222 396 200 381T167
340T151 289T146 235Q146 153 177 102T268 50Q294 50 317 65T340 110V320Q340 350 319 373T252 396Z" />
<glyph unicode="r" glyph-name="r" horiz-adv-x="430" d="M320 442Q375 442 402 409Q402 324 354 324Q336 324 315 344T272 364Q241 364 224 333T206 267V142Q206 81 213 52Q215 45 239 38T273 30Q276 30 276 16T276 -4Q268 -3 223 0T155 3Q131 3 86 0T32 -4Q28
0 28 15T32 30Q44 30 68 37T95 52Q102 82 102 125V288Q102 335 86 352Q78 362 64 367T40 373T30 376Q30 405 35 406Q81 410 196 436Q196 436 199 437T204 438Q208 438 211 431T214 420T212 406T210 386T208 372Q226 399 257 420T320 442Z" />
<glyph unicode="s" glyph-name="s" horiz-adv-x="366" d="M190 443Q246 443 306 426Q316 381 317 314Q317 306 304 306Q282 306 280 314Q273 349 251 373T190 398Q161 398 145 385T128 348Q128 334 133 323T151 301T173 285T202 269Q209 265 212 264Q214 263 227
256T243 247T259 238T277 226T292 214T307 200T319 185T330 167T335 148T338 126Q338 63 290 27T172 -10Q110 -10 43 18Q38 35 33 73T28 131Q34 136 42 136Q65 136 66 128Q74 86 105 61T174 35Q202 35 220 49T238 90Q238 100 236 108T226 125T215 139T197 153T177
164T152 177T126 191Q80 215 55 244T30 316Q30 377 78 410T190 443Z" />
<glyph unicode="t" glyph-name="t" horiz-adv-x="350" d="M85 372H24Q17 372 17 398Q17 405 18 407Q58 425 95 460Q108 473 123 489T149 519T160 532Q170 532 179 530T188 524V426Q214 426 260 426T310 425Q318 425 318 416Q318 392 308 372H188V131Q188 91 205
70T252 49Q262 49 273 51T291 57T304 63T311 66Q315 67 320 57T324 44Q318 30 282 12T210 -7Q158 -7 122 26T85 130V372Z" />
<glyph unicode="u" glyph-name="u" horiz-adv-x="555" d="M464 334V136Q464 88 472 66Q475 61 483 58T501 54T517 53T526 52Q530 51 530 43Q530 39 528 30T522 20Q508 20 487 17T445 10T407 2T378 -4T367 -6Q360 -6 360 10V54Q359 59 357 59Q334 34 296 14T217
-6Q183 -6 158 11T118 55T97 113T90 176V288Q90 335 74 352Q65 362 51 367T27 373T17 376Q17 405 22 406Q51 408 104 418T183 436Q184 436 187 437T191 438Q196 438 198 431T201 420Q192 352 192 332V212Q192 134 214 100T285 66Q317 66 339 85T361 123V288Q361
335 345 352Q337 362 323 367T298 373T288 376Q288 405 294 406Q322 408 375 418T454 436Q455 436 458 437T462 438Q467 438 470 431T472 420Q464 352 464 334Z" />
<glyph unicode="v" glyph-name="v" horiz-adv-x="560" d="M396 379Q383 406 326 406Q323 406 323 420T326 438Q340 438 374 435T431 432T490 435T539 438Q542 434 542 422Q542 406 536 406Q522 406 497 397T463 368L296 15Q292 7 283 -2T266 -11Q256 -11 254 -5Q234
40 200 119T140 254T83 378Q71 406 18 406Q14 406 14 422Q14 434 18 438Q27 438 71 435T139 432T208 435T260 438Q263 434 263 420T258 406Q245 406 223 400T200 384Q200 377 202 374L301 144L391 342Q403 368 396 379Z" />
<glyph unicode="w" glyph-name="w" horiz-adv-x="815" d="M654 366Q654 378 646 386T626 398T603 403T582 405H578Q574 405 574 420T576 438Q589 438 629 435T693 432Q714 432 746 435T794 438Q796 431 796 421Q796 406 792 406Q780 406 753 394T718 363L570 10Q566
2 557 -4T537 -11Q527 -11 524 -4L402 272L295 11Q292 5 284 -3T262 -11Q252 -11 248 -4Q225 48 194 122T136 254T76 378Q69 391 50 398T18 405Q14 405 14 421Q14 435 18 438Q28 438 68 435T132 432Q155 432 200 435T252 438Q254 433 254 420T251 406Q238 406 217
399T195 378Q195 376 295 148Q306 176 320 211T342 265T357 303T368 331T371 344Q371 364 358 384Q351 394 336 400Q325 406 300 406Q296 406 296 420T300 438Q311 438 349 435T412 432Q434 432 477 435T528 438Q530 434 530 420T526 405Q475 405 475 370Q475 351
569 148Q585 190 608 246T643 330T654 366Z" />
<glyph unicode="x" glyph-name="x" horiz-adv-x="566" d="M32 422Q32 432 36 438Q146 432 154 432Q162 432 274 438Q276 434 276 424Q276 406 272 406Q258 406 244 401T230 385Q230 380 235 373L298 284Q305 294 325 321T354 363T364 386Q364 393 356 397T338
403T318 404T306 406Q302 406 302 422Q302 434 306 438Q415 432 422 432Q429 432 526 438Q528 431 528 422Q528 406 526 406Q458 398 438 374L332 250Q330 246 330 242Q330 236 334 232L447 77Q477 35 530 28Q533 28 533 11Q533 2 529 -4Q514 -3 493 -1T454 2T416
3Q394 3 375 2T333 -1T292 -4Q290 6 290 9Q290 30 293 30Q307 30 322 37T337 54Q337 56 335 60L263 160L200 72Q193 63 193 54Q193 48 196 44T208 38T221 34T238 32T252 30Q255 30 255 13Q255 0 251 -4Q236 -3 216 -1T178 2T142 3Q123 3 106 2T68 -1T32 -4Q30 4
30 13Q30 30 34 30Q99 40 121 68L228 198Q230 202 230 206Q230 209 227 213L112 369Q101 384 77 394T36 405Q32 405 32 422Z" />
<glyph unicode="y" glyph-name="y" horiz-adv-x="524" d="M134 432Q156 432 197 435T248 438Q250 431 250 420Q250 406 246 406Q236 406 215 399T192 382V376Q194 360 285 148Q293 166 324 246T360 339Q366 356 366 370Q366 383 350 394T302 406Q298 406 298 421Q298
434 302 438Q314 438 351 435T412 432Q433 432 463 435T508 438Q512 432 512 422Q512 406 508 406Q494 406 468 396T433 366L250 -76Q188 -222 101 -222Q75 -222 61 -208T47 -176Q47 -150 66 -137Q170 -137 203 -55Q227 5 230 13L84 353Q76 371 72 376Q62 391 43
398T10 406Q6 406 6 420Q6 436 9 438Q15 438 62 435T134 432Z" />
<glyph unicode="z" glyph-name="z" horiz-adv-x="431" d="M158 54Q158 51 163 49T170 47H267Q341 47 367 125Q370 135 384 135T404 127L386 0H46Q26 12 26 23Q26 26 27 27L258 376L152 378Q142 378 133 376T117 370T104 360T94 349T86 337T79 325T74 314T71 306Q68
300 46 300Q35 300 35 302Q35 307 42 353T51 430Q110 424 146 424H268Q328 424 394 432Q396 427 396 408L166 68Q158 58 158 54Z" />
<glyph unicode="{" glyph-name="braceleft" horiz-adv-x="290" d="M26 292Q22 300 22 310Q22 321 26 328Q54 335 70 341T100 364T114 406T97 486T80 574Q80 654 137 702T264 750Q268 750 268 740Q268 720 260 719Q231 717 200 687T168 613Q168 578 185 525T202
428Q202 381 175 345T120 308Q149 308 175 273T202 192Q202 149 185 101T168 18Q168 -26 200 -59T260 -94Q268 -95 268 -116Q268 -125 264 -125Q197 -125 140 -72T82 56Q82 86 98 140T114 219Q114 230 112 239T104 254T93 265T78 274T63 281T44 287T26 292Z" />
<glyph unicode="|" glyph-name="bar" horiz-adv-x="145" d="M111 -106Q111 -110 79 -116T41 -122T35 -115V757Q34 763 40 765Q64 772 102 772Q106 772 108 771T110 768V766L111 -106Z" />
<glyph unicode="}" glyph-name="braceright" horiz-adv-x="289" d="M264 292Q261 291 247 287T228 281T212 275T197 266T187 255T178 239T176 219Q176 194 192 140T208 56Q208 -19 150 -72T25 -125Q21 -125 21 -116Q21 -96 30 -94Q58 -92 89 -59T121 18Q121 53
104 101T87 192Q87 238 114 273T170 308Q142 308 115 344T88 428Q88 471 104 524T121 613Q121 657 90 687T30 719Q21 720 21 740Q21 750 25 750Q95 750 152 702T210 574Q210 542 193 487T176 406Q176 370 198 354T263 328Q267 321 267 310Q267 298 264 292Z" />
<glyph unicode="~" glyph-name="asciitilde" horiz-adv-x="520" d="M37 256Q28 260 28 278Q28 302 52 318Q105 356 158 356Q205 356 276 330T394 304Q401 304 408 305T420 307T432 312T442 317T453 324T463 331T473 339T484 348Q493 344 493 326Q493 303 470 286Q420
248 365 248Q318 248 247 274T128 300Q110 300 92 292T67 279T37 256Z" />
<glyph unicode="&#xa0;" glyph-name="uni00A0" horiz-adv-x="209" />
<glyph unicode="&#xa1;" glyph-name="exclamdown" horiz-adv-x="179" d="M91 -231Q66 -231 51 -213T35 -166Q35 -149 41 -88T56 67T71 228Q74 251 89 256Q97 257 103 250T112 230Q119 149 128 54T142 -95T147 -166Q147 -194 131 -212T91 -231ZM25 342T25 370T45
418T91 438Q118 438 136 418T155 370T136 324T89 304Q63 304 44 323Z" />
<glyph unicode="&#xa2;" glyph-name="cent" horiz-adv-x="463" d="M277 474Q314 474 314 466L231 -45Q194 -45 194 -36L277 474ZM260 441Q314 441 357 424T414 384Q414 307 368 307Q353 307 343 317T320 348Q305 372 289 384T246 396Q203 396 178 354T152 244Q152
152 189 107T285 62Q305 62 324 66T357 77T381 89T400 102T412 110Q414 110 417 105T420 94Q420 82 414 75Q396 48 353 20T255 -8Q164 -8 104 55T43 218Q43 308 105 374T260 441Z" />
<glyph unicode="&#xa3;" glyph-name="sterling" horiz-adv-x="482" d="M54 327H326Q332 327 332 317Q332 310 328 300T316 284H53Q48 284 48 298Q48 318 54 327ZM286 638Q319 638 347 628T386 599Q386 583 384 569T372 541T346 527Q331 527 319 537T300 559T281
581T254 592Q213 592 197 558T180 464Q180 441 190 363T200 259Q200 160 156 94Q178 102 218 102Q247 102 298 87T365 72Q377 72 386 75T404 88T417 104T430 124T440 142Q446 142 452 136T458 122Q458 115 457 111Q449 86 438 63T399 16T340 -8Q305 -8 241 10T153
28Q144 28 135 26T120 21T105 14T93 7T81 -2T72 -8Q60 -7 53 1T46 15Q54 28 72 52T96 82Q110 114 110 234Q110 251 100 327T90 431Q90 523 146 580T286 638Z" />
<glyph unicode="&#xa4;" glyph-name="currency" horiz-adv-x="468" d="M243 158Q283 158 305 196T327 286Q327 355 300 406T224 458Q185 458 163 419T141 326Q141 258 168 208T243 158ZM347 458L402 510Q406 514 415 508T433 488T445 464L390 413Q423 364 423
308Q423 245 385 194L435 142Q439 138 433 129T413 111T389 99L339 152Q291 120 234 120Q169 120 118 158L65 109Q61 105 52 111T35 130T23 155L75 204Q45 249 45 308Q45 372 84 424L33 478Q29 482 35 491T54 508T79 520L130 466Q176 497 234 497Q295 497 347 458Z"
/>
<glyph unicode="&#xa5;" glyph-name="yen" horiz-adv-x="673" d="M154 636Q170 636 288 642Q290 638 290 624T286 610Q271 610 251 604T231 584Q231 574 240 558L344 366Q350 361 354 368Q397 432 436 498T475 584Q475 594 457 602T410 610Q406 610 406 624T409
642Q508 636 516 636Q539 636 641 642Q644 634 644 626Q644 610 640 610Q624 610 595 602T554 578Q525 535 452 416T378 283V256H458Q464 256 464 244Q464 225 458 215H378V177H458Q464 177 464 164Q464 145 458 136H378Q378 80 386 52Q387 45 412 37T446 28Q450
28 450 13Q450 2 448 -4Q445 -3 398 0T324 3Q298 3 252 0T195 -4Q191 0 191 11Q191 28 194 28Q206 28 230 36T258 52Q266 80 266 136H185Q180 136 180 148Q180 165 186 177H266V215H185Q180 215 180 228Q180 244 186 256H266Q266 278 266 280Q265 284 258 298T235
341T207 392T169 459T132 524Q107 571 84 592Q62 610 26 610Q23 610 23 620T24 634Q48 636 154 636Z" />
<glyph unicode="&#xa6;" glyph-name="brokenbar" horiz-adv-x="143" d="M110 414Q110 410 78 404T40 398T34 405V757Q33 763 39 765Q63 772 101 772Q105 772 107 771T109 768V766L110 414ZM110 -106Q110 -110 78 -116T40 -122T34 -115V237Q33 243 39 245Q63 252
101 252Q105 252 107 251T109 248V246L110 -106Z" />
<glyph unicode="&#xa7;" glyph-name="section" horiz-adv-x="394" d="M368 276Q368 230 348 195T305 144Q318 115 318 90Q318 41 292 10T234 -31T169 -41T110 -30T76 -6Q76 -4 76 2T75 10Q75 58 107 58Q123 58 150 33T201 8Q228 8 245 22T263 60Q263 94 239 118T179
159T109 196T50 252T25 338Q25 422 86 466Q74 487 74 518Q74 582 117 616T223 651Q257 651 281 640T315 614Q315 612 316 606T317 598Q317 550 283 550Q270 550 243 576T192 602Q167 602 148 590T129 548Q129 516 153 493T213 452T283 416T343 362T368 276ZM289
179Q311 201 311 225Q311 262 286 290T228 333T158 374T103 430Q83 414 83 382Q83 344 107 317T164 276T233 236T289 179Z" />
<glyph unicode="&#xa8;" glyph-name="dieresis" horiz-adv-x="366" d="M229 490T229 514T246 555T287 573T328 556T346 514T329 473T287 456T246 473ZM27 490T27 514T44 555T85 573T126 556T144 514T127 473T85 456T44 473Z" />
<glyph unicode="&#xa9;" glyph-name="copyright" horiz-adv-x="600" d="M65 439T65 342T134 176T301 107Q398 107 467 175T536 342T467 508T301 577Q203 577 134 508ZM27 229T27 342T107 535T300 615T493 535T574 342T494 149T300 69T107 149ZM419 272Q419 266
412 243T399 216Q361 197 299 197Q241 197 201 238T161 336Q161 396 201 439T301 482Q355 482 405 466Q406 466 411 436T417 402Q417 396 405 396Q399 396 395 398Q392 408 385 418T358 439T307 450Q270 450 248 419T225 346Q225 294 252 261T319 228Q362 228 381
245Q386 250 390 258T397 271T401 276Q417 276 419 272Z" />
<glyph unicode="&#xaa;" glyph-name="ordfeminine" horiz-adv-x="330" d="M184 325V393Q179 391 159 385T130 374T111 360T101 336Q101 315 112 304T139 293Q157 293 170 303T184 325ZM255 322Q255 290 278 290Q284 290 289 292T297 297T301 300Q305 300 305 294Q305
287 300 272Q270 250 241 250Q225 250 211 261T191 286L182 280Q174 273 164 267T138 254T104 248Q67 248 47 269T27 324Q27 343 36 357T66 383T101 399T143 413T178 424Q184 426 184 435V476Q184 498 173 511T145 524Q125 524 112 510T99 472Q99 452 62 452Q32
452 32 474Q32 502 74 529T164 556Q209 556 232 534T255 460V322Z" />
<glyph unicode="&#xab;" glyph-name="guillemotleft" horiz-adv-x="470" d="M299 248Q303 244 337 209T379 167Q441 107 445 100Q446 97 446 94Q446 83 417 73Q416 75 398 91T328 146T211 227Q204 230 204 241Q204 259 212 268Q249 290 283 314T340 356T381 390T408
414L418 423Q429 420 438 414T447 401Q447 392 379 328L299 248ZM120 248Q124 244 157 209T199 167Q261 107 265 101Q267 97 267 94Q267 83 238 73Q237 75 219 91T149 146T32 227Q25 230 25 241Q25 259 33 268Q70 290 104 314T161 356T202 390T230 414L239 423Q250
420 259 414T268 401Q268 391 201 328L120 248Z" />
<glyph unicode="&#xac;" glyph-name="logicalnot" horiz-adv-x="535" d="M28 370Q33 424 43 424Q43 424 489 424Q501 424 501 412V169Q492 160 447 154H443Q443 154 437 161V350Q437 353 434 356T425 360H34Q28 360 28 370Z" />
<glyph unicode="&#xae;" glyph-name="registered" horiz-adv-x="599" d="M264 321Q265 293 268 281Q269 278 279 275T293 271Q295 271 295 266T294 258Q243 261 233 261L173 258Q172 259 172 264Q172 271 173 271Q178 271 188 274T200 281Q203 291 203 318V486Q203
512 200 522Q199 525 189 528T173 532Q172 532 172 538Q172 545 173 546Q178 546 202 544T233 542Q246 542 263 543T294 545Q330 545 361 528T393 471Q393 446 381 426T349 397Q345 395 347 390Q364 345 407 299Q432 271 453 271Q455 267 455 264Q455 260 454 258Q451
257 442 257Q371 257 323 324Q313 338 303 354T288 377T277 388Q276 389 271 389Q264 389 264 382V321ZM296 410Q310 410 322 424T334 464Q334 493 323 507T295 522Q274 522 268 520Q265 520 265 516Q264 504 264 476V425Q264 418 268 415T278 411T297 410H296ZM65
501T65 404T134 238T301 169Q398 169 467 237T536 404T467 570T301 639Q203 639 134 570ZM27 291T27 404T107 597T300 677T493 597T574 404T494 211T300 131T107 211Z" />
<glyph unicode="&#xaf;" glyph-name="overscore" horiz-adv-x="384" d="M68 541Q68 551 71 574T82 598H311Q316 598 316 591Q316 568 308 539Q307 536 306 535T302 532H301H74Q74 532 70 534Q68 537 68 541Z" />
<glyph unicode="&#xb0;" glyph-name="degree" horiz-adv-x="234" d="M59 560T59 536T76 495T117 478T157 495T174 536T158 576T117 593T76 577ZM18 496T18 536T47 605T117 634T186 605T215 536Q215 495 186 466T117 437Q76 437 47 466Z" />
<glyph unicode="&#xb1;" glyph-name="plusminus" horiz-adv-x="532" d="M489 4H33Q27 4 27 14Q27 36 35 63Q36 66 37 67T40 68H42H498Q506 68 506 62Q506 47 496 10Q495 7 494 6T490 4H489ZM298 306V118Q291 108 246 102Q244 102 243 102T240 101Q234 101 234
109V304Q234 309 228 309H33Q27 309 27 319Q27 341 35 368Q36 371 37 372T40 373H42H229Q234 373 234 379V565Q233 570 239 572Q266 580 288 580L298 574V378Q298 373 302 373H498Q506 373 506 367Q506 352 496 315Q495 312 494 311T490 309H489H302Q298 309 298
306Z" />
<glyph unicode="&#xb2;" glyph-name="uni00B2" horiz-adv-x="328" d="M134 590Q126 590 118 588T103 582T88 572T76 563T66 553T59 546Q55 545 47 555T39 571Q39 576 40 578Q56 602 91 624T164 646Q211 646 242 615T274 538Q274 507 260 477T214 414T164 367T106
320Q104 318 105 316T108 314H233Q247 314 256 318T268 327T275 342T281 355Q282 358 287 358Q300 358 304 353Q300 340 280 254H166H38Q26 264 26 277Q26 280 28 288Q74 336 104 370T163 452T192 530Q192 552 177 571T134 590Z" />
<glyph unicode="&#xb3;" glyph-name="uni00B3" horiz-adv-x="294" d="M166 646Q194 646 222 627T250 572Q250 520 180 478Q205 478 236 449T268 374Q268 310 221 278T106 246Q50 246 28 270Q26 274 26 282Q26 296 36 306T58 316Q72 316 91 299T126 282Q158 282
180 304T202 368Q202 442 131 442Q127 442 94 439Q86 447 86 456Q86 466 92 469Q176 487 176 554Q176 573 163 584T132 596Q110 596 87 577T62 558Q56 558 50 570T46 586Q63 611 96 628T166 646Z" />
<glyph unicode="&#xb4;" glyph-name="acute" horiz-adv-x="247" d="M215 660Q215 635 144 580T59 524Q54 524 49 529T44 540Q44 543 59 567T97 625T137 678Q146 687 171 687Q187 687 197 681T211 670T215 660Z" />
<glyph unicode="&#xb5;" glyph-name="uni00B5" d="M180 -9Q173 -9 167 -8T156 -2T146 5T138 15T131 26T125 39T120 51T116 64T112 76Q112 75 113 23T119 -92T134 -207Q129 -214 118 -220T96 -227Q85 -227 60 -213T35 -190Q35 -158 41 -10T56 204Q56 216 54 251T52
298V422Q56 428 68 435T90 442Q99 442 123 428T148 404Q148 350 128 256L122 223Q122 161 137 119T180 77Q261 77 294 227V298V422Q298 428 310 435T332 442Q341 442 368 428T396 404Q396 354 373 246L368 223Q368 190 370 165T377 118T394 84T422 72Q439 72 456
83T482 103Q486 103 493 92Q496 86 496 76Q486 43 460 20T403 -4Q370 -3 350 35T322 128Q295 66 261 29T180 -9Z" />
<glyph unicode="&#xb6;" glyph-name="paragraph" horiz-adv-x="468" d="M276 274L278 53Q278 40 299 40Q306 40 311 44T316 54Q320 99 320 283Q320 287 316 287Q314 287 310 286T299 284T284 282Q276 281 276 274ZM206 652Q236 652 262 650T317 648Q347 648 376
649T420 652L434 654Q438 650 437 637T432 623Q419 623 398 618T374 604Q371 594 371 500Q371 464 371 409T372 349Q372 346 373 345T377 344L420 353Q424 345 424 337Q424 319 404 310Q395 305 378 302Q373 300 373 297Q373 74 380 48Q383 40 405 33T439 26Q443
26 443 14Q443 0 439 -4Q420 -3 367 -1T278 2Q258 2 238 1T195 -1T159 -4Q157 0 157 13T161 26Q170 26 192 33T217 48Q222 69 222 183V270Q222 277 202 277Q121 277 74 334T26 464Q26 552 81 602T206 652ZM278 597Q276 437 276 335Q276 330 284 330Q299 330 314
335Q320 337 320 342Q320 572 318 598Q318 601 312 605T298 609Q278 609 278 597Z" />
<glyph unicode="&#xb7;" glyph-name="middot" horiz-adv-x="220" d="M182 294T182 267T163 220T116 199Q88 199 68 219T48 267T68 314T116 334Q143 334 162 314Z" />
<glyph unicode="&#xb8;" glyph-name="cedilla" horiz-adv-x="443" d="M223 -28Q241 -27 245 -27Q266 -27 280 -42T294 -77Q294 -112 267 -133T198 -154Q170 -154 158 -142Q155 -130 155 -126Q155 -121 159 -117T166 -112T183 -119T209 -126Q229 -126 239 -117T250
-95Q250 -81 242 -73T222 -64Q209 -64 194 -70Q192 -70 187 -65T182 -56Q187 -47 198 -27T212 -3H239L223 -28Z" />
<glyph unicode="&#xb9;" glyph-name="uni00B9" horiz-adv-x="273" d="M37 548Q23 553 23 566Q23 574 24 575Q63 593 102 611T159 640T179 650H180Q183 650 188 641T195 628Q183 592 183 546V336Q183 311 193 294Q197 289 216 285T243 280Q247 280 247 264Q247
256 245 252Q235 252 199 254T145 256Q126 256 86 254T38 252Q35 254 35 267T38 280Q48 280 68 284T91 294Q100 312 100 326V524Q100 564 84 564Q80 564 37 548Z" />
<glyph unicode="&#xba;" glyph-name="ordmasculine" horiz-adv-x="368" d="M177 523Q143 523 126 491T109 416Q109 360 129 319T193 277Q226 277 242 309T259 384Q259 440 240 481T177 523ZM119 554T185 554T296 509T342 400T297 292T185 247T73 292T27 400Q27
464 73 509Z" />
<glyph unicode="&#xbb;" glyph-name="guillemotright" horiz-adv-x="473" d="M173 248Q173 248 93 328Q25 392 25 401Q25 407 34 413T54 423L64 414Q73 405 90 390T131 357T189 314T260 268Q268 259 268 241Q268 230 261 227Q195 185 144 147T75 92T55 73Q26 83
26 94Q26 103 74 149Q86 160 93 167Q101 174 135 209T173 248ZM352 248L271 328Q204 391 204 401Q204 407 213 413T233 423L242 414Q252 405 269 390T310 357T368 314T439 268Q447 259 447 241Q447 230 440 227Q374 185 323 147T254 92T234 73Q205 83 205 94Q205
102 246 142Q263 157 273 167Q281 174 314 209T352 248Z" />
<glyph unicode="&#xbc;" glyph-name="onequarter" horiz-adv-x="680" d="M36 548Q22 553 22 566Q22 574 23 575Q62 593 101 611T158 640T178 650H179Q182 650 187 641T194 628Q182 592 182 546V336Q182 311 192 294Q196 289 215 285T242 280Q246 280 246 264Q246
256 244 252Q234 252 198 254T144 256Q125 256 85 254T37 252Q34 254 34 267T37 280Q47 280 67 284T90 294Q99 312 99 326V524Q99 564 83 564Q79 564 36 548ZM580 -4Q539 -4 539 4V104Q538 108 534 108H381Q370 115 370 132L580 389Q587 398 601 398Q618 398 618
390V160Q618 156 624 156H646Q658 156 658 112Q658 110 657 109T654 106H652H622Q618 106 618 101V1Q613 -4 580 -4ZM539 284L528 271Q517 258 506 244L494 230L440 164Q439 163 440 160T444 157H536Q539 157 539 159V284ZM521 643Q522 646 527 646Q539 646 551
636T564 620V619Q563 618 563 617L215 -14Q213 -16 210 -16Q199 -16 187 -6T174 8V11L521 643Z" />
<glyph unicode="&#xbd;" glyph-name="onehalf" horiz-adv-x="705" d="M513 336Q505 336 497 334T482 328T467 318T455 309T445 299T438 292Q434 291 426 301T418 317Q418 322 419 324Q435 348 469 370T542 392Q589 392 620 361T652 284Q652 253 638 223T592 160T542
113T484 66Q482 64 483 61T486 58H612Q626 58 635 63T647 72T654 87T660 101Q661 104 666 104Q679 104 683 99Q674 71 658 0H544H417Q405 10 405 23Q405 26 407 34Q570 204 570 276Q570 298 555 317T513 336ZM36 548Q22 553 22 566Q22 574 23 575Q62 593 101 611T158
640T178 650H179Q182 650 187 641T194 628Q182 592 182 546V336Q182 311 192 294Q196 289 215 285T242 280Q246 280 246 264Q246 256 244 252Q234 252 198 254T144 256Q125 256 85 254T37 252Q34 254 34 267T37 280Q47 280 67 284T90 294Q99 312 99 326V524Q99
564 83 564Q79 564 36 548ZM506 643Q508 646 512 646Q524 646 536 636T549 620L548 619Q548 618 548 617L200 -14Q198 -16 195 -16Q184 -16 172 -6T159 8V11L506 643Z" />
<glyph unicode="&#xbe;" glyph-name="threequarters" horiz-adv-x="691" d="M532 643Q534 646 538 646Q550 646 562 636T575 620L574 619Q574 618 574 617L226 -14Q224 -16 221 -16Q210 -16 198 -6T185 8V11L532 643ZM163 646Q191 646 218 627T246 572Q246 519
177 478Q206 478 241 454T277 384Q277 320 224 283T102 246Q46 246 24 270Q23 272 23 282Q23 296 32 306T54 316Q68 316 87 299T122 282Q154 282 176 304T199 368Q199 442 127 442Q123 442 90 439Q83 446 83 456T88 469Q171 487 171 554Q171 573 158 584T128 596T96
587T72 568T59 558Q54 558 48 570T43 586Q60 611 93 628T163 646ZM591 -4Q550 -4 550 4V104Q549 108 545 108H392Q381 115 381 132L591 389Q598 398 612 398Q629 398 629 390V160Q629 156 635 156H657Q669 156 669 112Q669 110 668 109T664 106H663H633Q629 106
629 101V1Q624 -4 591 -4ZM550 284L539 271Q528 258 516 244L505 230L451 164Q450 163 451 160T455 157H547Q550 157 550 159V284Z" />
<glyph unicode="&#xbf;" glyph-name="questiondown" horiz-adv-x="325" d="M250 -218Q160 -218 92 -167T23 -34Q23 30 50 65T133 128Q137 130 147 135T163 142T176 150T190 158T200 166T209 175T213 184Q216 192 216 213T218 239Q225 250 244 250Q258 250 258
164Q258 114 247 94T201 50Q194 45 171 33T133 11T104 -17T90 -56Q90 -85 111 -105T161 -125Q176 -125 201 -120T241 -115Q265 -115 283 -130T301 -168Q301 -186 295 -206Q269 -218 250 -218ZM168 343T168 370T187 417T234 438Q262 438 282 418T302 370T282 323T234
303Q207 303 188 323Z" />
<glyph unicode="&#xc0;" glyph-name="Agrave" horiz-adv-x="736" d="M408 751T408 745T404 734T396 728Q377 728 297 768T216 832Q216 847 232 856T270 865Q282 865 288 862Q317 840 362 796ZM391 660L601 136Q616 96 631 63Q637 48 663 39T701 30Q705 30 705
12Q705 0 703 -3Q583 3 577 3Q570 3 447 -3Q443 1 443 15T447 30Q459 30 480 36T505 50Q508 56 508 63Q508 83 489 132L454 225Q450 229 447 229Q415 231 361 231T247 228Q241 228 241 224L203 131Q184 79 184 66T195 46Q204 40 226 35T257 30Q260 29 260 16T258
-3Q253 -3 211 0T143 3T82 1T31 -3Q27 1 27 12Q27 30 29 30Q41 30 67 38T101 58Q120 88 139 136L325 586Q348 646 362 658Q370 665 379 665Q386 665 391 660ZM271 288Q306 285 343 285Q378 285 425 288L427 292L351 492L269 292Q269 288 271 288Z" />
<glyph unicode="&#xc1;" glyph-name="Aacute" horiz-adv-x="736" d="M319 739T319 745T364 795T439 862Q445 865 457 865Q479 865 495 856T511 832Q511 808 431 768T331 728Q327 728 323 733ZM391 660L601 136Q616 96 631 63Q637 48 663 39T701 30Q705 30 705
12Q705 0 703 -3Q583 3 577 3Q570 3 447 -3Q443 1 443 15T447 30Q459 30 480 36T505 50Q508 56 508 63Q508 83 489 132L454 225Q450 229 447 229Q415 231 361 231T247 228Q241 228 241 224L203 131Q184 79 184 66T195 46Q204 40 226 35T257 30Q260 29 260 16T258
-3Q253 -3 211 0T143 3T82 1T31 -3Q27 1 27 12Q27 30 29 30Q41 30 67 38T101 58Q120 88 139 136L325 586Q348 646 362 658Q370 665 379 665Q386 665 391 660ZM271 288Q306 285 343 285Q378 285 425 288L427 292L351 492L269 292Q269 288 271 288Z" />
<glyph unicode="&#xc2;" glyph-name="Acircumflex" horiz-adv-x="736" d="M479 728Q460 728 367 788Q343 771 304 750T255 728Q245 728 245 747Q246 748 268 767T313 808Q339 833 355 855Q363 864 367 864Q372 864 379 855Q409 820 420 809Q437 793 453 779T478
756T489 747Q489 728 479 728ZM391 660L601 136Q616 96 631 63Q637 48 663 39T701 30Q705 30 705 12Q705 0 703 -3Q583 3 577 3Q570 3 447 -3Q443 1 443 15T447 30Q459 30 480 36T505 50Q508 56 508 63Q508 83 489 132L454 225Q450 229 447 229Q415 231 361 231T247
228Q241 228 241 224L203 131Q184 79 184 66T195 46Q204 40 226 35T257 30Q260 29 260 16T258 -3Q253 -3 211 0T143 3T82 1T31 -3Q27 1 27 12Q27 30 29 30Q41 30 67 38T101 58Q120 88 139 136L325 586Q348 646 362 658Q370 665 379 665Q386 665 391 660ZM271 288Q306
285 343 285Q378 285 425 288L427 292L351 492L269 292Q269 288 271 288Z" />
<glyph unicode="&#xc3;" glyph-name="Atilde" horiz-adv-x="736" d="M183 738Q175 738 175 757Q175 774 193 801Q230 847 276 847Q312 847 367 817T458 786Q476 786 500 811T527 837Q534 837 534 817Q534 799 517 773Q483 728 435 728Q399 728 344 758T253 789Q240
789 225 776T198 751T183 738ZM391 660L601 136Q616 96 631 63Q637 48 663 39T701 30Q705 30 705 12Q705 0 703 -3Q583 3 577 3Q570 3 447 -3Q443 1 443 15T447 30Q459 30 480 36T505 50Q508 56 508 63Q508 83 489 132L454 225Q450 229 447 229Q415 231 361 231T247
228Q241 228 241 224L203 131Q184 79 184 66T195 46Q204 40 226 35T257 30Q260 29 260 16T258 -3Q253 -3 211 0T143 3T82 1T31 -3Q27 1 27 12Q27 30 29 30Q41 30 67 38T101 58Q120 88 139 136L325 586Q348 646 362 658Q370 665 379 665Q386 665 391 660ZM271 288Q306
285 343 285Q378 285 425 288L427 292L351 492L269 292Q269 288 271 288Z" />
<glyph unicode="&#xc4;" glyph-name="Adieresis" horiz-adv-x="736" d="M420 764T420 790T438 834T482 852T526 834T544 790T526 746T482 728T438 746ZM214 764T214 790T232 834T276 852T320 834T338 790T320 746T276 728T232 746ZM391 660L601 136Q616 96 631
63Q637 48 663 39T701 30Q705 30 705 12Q705 0 703 -3Q583 3 577 3Q570 3 447 -3Q443 1 443 15T447 30Q459 30 480 36T505 50Q508 56 508 63Q508 83 489 132L454 225Q450 229 447 229Q415 231 361 231T247 228Q241 228 241 224L203 131Q184 79 184 66T195 46Q204
40 226 35T257 30Q260 29 260 16T258 -3Q253 -3 211 0T143 3T82 1T31 -3Q27 1 27 12Q27 30 29 30Q41 30 67 38T101 58Q120 88 139 136L325 586Q348 646 362 658Q370 665 379 665Q386 665 391 660ZM271 288Q306 285 343 285Q378 285 425 288L427 292L351 492L269
292Q269 288 271 288Z" />
<glyph unicode="&#xc5;" glyph-name="Aring" horiz-adv-x="736" d="M321 759Q321 736 337 720T375 704T412 720T428 759T413 797T375 813Q352 813 337 797T321 759ZM281 720T281 759T308 825T375 852Q413 852 440 825T467 759T440 692T375 664T309 692ZM391 660L601
136Q616 96 631 63Q637 48 663 39T701 30Q705 30 705 12Q705 0 703 -3Q583 3 577 3Q570 3 447 -3Q443 1 443 15T447 30Q459 30 480 36T505 50Q508 56 508 63Q508 83 489 132L454 225Q450 229 447 229Q415 231 361 231T247 228Q241 228 241 224L203 131Q184 79 184
66T195 46Q204 40 226 35T257 30Q260 29 260 16T258 -3Q253 -3 211 0T143 3T82 1T31 -3Q27 1 27 12Q27 30 29 30Q41 30 67 38T101 58Q120 88 139 136L325 586Q348 646 362 658Q370 665 379 665Q386 665 391 660ZM271 288Q306 285 343 285Q378 285 425 288L427 292L351
492L269 292Q269 288 271 288Z" />
<glyph unicode="&#xc6;" glyph-name="AE" horiz-adv-x="914" d="M446 496Q446 500 442 500Q437 500 434 494Q434 494 307 290Q306 286 308 286Q342 283 379 283Q384 283 431 286Q433 286 436 287T442 290T446 296V496ZM425 584Q430 592 430 600Q430 601 428 605Q424
613 407 618T377 624Q373 624 373 640Q373 654 377 658Q437 654 504 654Q548 654 659 658T827 662Q831 632 843 579T856 520Q851 515 835 515Q824 515 821 522Q788 611 693 611H641Q567 611 565 598Q559 570 559 517V360Q559 354 603 354H655Q656 354 659 354Q717
354 728 359T745 394Q748 409 751 419Q752 426 767 426Q781 426 786 421V232Q782 228 767 228Q754 228 751 236Q744 263 739 276T732 290T723 296Q710 304 631 304Q559 304 559 296V141Q559 86 568 60Q573 47 636 47H673Q751 47 792 68Q808 76 828 103T859 164Q860
170 873 170Q895 170 901 164Q898 155 887 123T869 75T856 34T847 -5Q790 -5 669 -3T505 0L377 -6Q373 -2 373 12Q373 30 377 30Q390 30 413 36T439 50Q446 77 446 133V223Q444 227 441 227Q409 229 384 229Q330 229 270 226Q263 226 263 222L205 129Q175 79 172
64Q169 51 178 42Q186 35 206 30T235 25Q238 24 236 12T230 -6Q220 -5 186 -3T125 0Q98 0 58 -2T5 -6Q2 -3 4 10Q6 24 11 24Q22 24 50 34T87 56Q113 86 142 134L425 584Z" />
<glyph unicode="&#xc7;" glyph-name="Ccedilla" horiz-adv-x="639" d="M339 -29Q339 -29 365 -29Q389 -29 406 -46T423 -87Q423 -128 392 -153T310 -178Q282 -178 262 -163Q259 -148 259 -145Q259 -139 263 -134T272 -129Q276 -129 293 -137T322 -145Q345 -145
358 -135T371 -109Q371 -93 362 -83T338 -72Q323 -72 306 -79Q304 -79 298 -73T292 -63Q304 -43 327 0H358L339 -29ZM613 182Q613 169 598 105T575 36Q488 -6 343 -6Q211 -6 118 91T25 322Q25 464 120 565T354 667Q467 667 590 640Q593 639 596 575T599 494Q599
479 575 479Q569 479 561 483Q557 501 547 520T515 563T453 602T358 618Q260 618 206 537T151 343Q151 217 212 130T386 42Q475 42 527 98Q540 112 550 135T566 175T574 191Q609 191 613 182Z" />
<glyph unicode="&#xc8;" glyph-name="Egrave" horiz-adv-x="584" d="M362 751T362 745T358 734T350 728Q331 728 251 768T170 832Q170 847 186 856T224 865Q236 865 242 862Q271 840 316 796ZM162 657Q206 657 317 660T485 664Q489 634 501 581T514 522Q509 517
493 517Q482 517 479 524Q446 613 351 613H299Q225 613 223 600Q217 572 217 519V362Q217 356 261 356H313Q314 356 317 356Q375 356 386 361T403 396Q406 411 409 421Q410 428 425 428Q439 428 444 423V234Q440 230 425 230Q412 230 409 238Q402 265 397 278T390
292T381 298Q368 306 289 306Q217 306 217 298V143Q217 88 226 62Q231 49 294 49H331Q409 49 450 70Q466 78 486 105T517 166Q518 172 531 172Q553 172 559 166Q556 157 545 125T527 77T514 36T505 -3Q465 -3 340 0T163 1L30 -3Q27 0 27 13Q27 30 30 30Q43 30 68
36T97 52Q104 73 104 143V521Q104 581 97 603Q94 614 69 621T29 628Q25 628 25 643Q25 657 29 661Q95 657 162 657Z" />
<glyph unicode="&#xc9;" glyph-name="Eacute" horiz-adv-x="584" d="M237 739T237 745T282 795T357 862Q363 865 375 865Q397 865 413 856T429 832Q429 808 349 768T249 728Q245 728 241 733ZM162 657Q206 657 317 660T485 664Q489 634 501 581T514 522Q509 517
493 517Q482 517 479 524Q446 613 351 613H299Q225 613 223 600Q217 572 217 519V362Q217 356 261 356H313Q314 356 317 356Q375 356 386 361T403 396Q406 411 409 421Q410 428 425 428Q439 428 444 423V234Q440 230 425 230Q412 230 409 238Q402 265 397 278T390
292T381 298Q368 306 289 306Q217 306 217 298V143Q217 88 226 62Q231 49 294 49H331Q409 49 450 70Q466 78 486 105T517 166Q518 172 531 172Q553 172 559 166Q556 157 545 125T527 77T514 36T505 -3Q465 -3 340 0T163 1L30 -3Q27 0 27 13Q27 30 30 30Q43 30 68
36T97 52Q104 73 104 143V521Q104 581 97 603Q94 614 69 621T29 628Q25 628 25 643Q25 657 29 661Q95 657 162 657Z" />
<glyph unicode="&#xca;" glyph-name="Ecircumflex" horiz-adv-x="584" d="M405 728Q386 728 293 788Q269 771 230 750T181 728Q171 728 171 747Q172 748 194 767T239 808Q265 833 281 855Q289 864 293 864Q298 864 305 855Q335 820 346 809Q363 793 379 779T404
756T415 747Q415 728 405 728ZM162 657Q206 657 317 660T485 664Q489 634 501 581T514 522Q509 517 493 517Q482 517 479 524Q446 613 351 613H299Q225 613 223 600Q217 572 217 519V362Q217 356 261 356H313Q314 356 317 356Q375 356 386 361T403 396Q406 411
409 421Q410 428 425 428Q439 428 444 423V234Q440 230 425 230Q412 230 409 238Q402 265 397 278T390 292T381 298Q368 306 289 306Q217 306 217 298V143Q217 88 226 62Q231 49 294 49H331Q409 49 450 70Q466 78 486 105T517 166Q518 172 531 172Q553 172 559
166Q556 157 545 125T527 77T514 36T505 -3Q465 -3 340 0T163 1L30 -3Q27 0 27 13Q27 30 30 30Q43 30 68 36T97 52Q104 73 104 143V521Q104 581 97 603Q94 614 69 621T29 628Q25 628 25 643Q25 657 29 661Q95 657 162 657Z" />
<glyph unicode="&#xcb;" glyph-name="Edieresis" horiz-adv-x="584" d="M337 764T337 790T355 834T399 852T443 834T461 790T443 746T399 728T355 746ZM131 764T131 790T149 834T193 852T237 834T255 790T237 746T193 728T149 746ZM162 657Q206 657 317 660T485
664Q489 634 501 581T514 522Q509 517 493 517Q482 517 479 524Q446 613 351 613H299Q225 613 223 600Q217 572 217 519V362Q217 356 261 356H313Q314 356 317 356Q375 356 386 361T403 396Q406 411 409 421Q410 428 425 428Q439 428 444 423V234Q440 230 425 230Q412
230 409 238Q402 265 397 278T390 292T381 298Q368 306 289 306Q217 306 217 298V143Q217 88 226 62Q231 49 294 49H331Q409 49 450 70Q466 78 486 105T517 166Q518 172 531 172Q553 172 559 166Q556 157 545 125T527 77T514 36T505 -3Q465 -3 340 0T163 1L30 -3Q27
0 27 13Q27 30 30 30Q43 30 68 36T97 52Q104 73 104 143V521Q104 581 97 603Q94 614 69 621T29 628Q25 628 25 643Q25 657 29 661Q95 657 162 657Z" />
<glyph unicode="&#xcc;" glyph-name="Igrave" horiz-adv-x="323" d="M429 751T429 745T425 734T417 728Q398 728 318 768T237 832Q237 847 253 856T291 865Q303 865 309 862Q338 840 383 796ZM104 522Q104 582 96 606Q92 614 68 621T32 629Q28 629 28 644Q28 660
30 662Q35 662 85 659T163 656Q171 656 291 662Q294 653 294 646Q294 629 290 629Q281 629 254 621T225 606Q217 575 217 518V142Q217 87 226 52Q228 45 253 38T288 30Q292 30 292 11Q292 3 290 -3Q170 3 163 3Q143 3 121 2T73 0T30 -3Q26 1 26 11Q26 30 30 30Q42
30 67 37T96 52Q104 83 104 136V522Z" />
<glyph unicode="&#xcd;" glyph-name="Iacute" horiz-adv-x="323" d="M148 739T148 745T193 795T268 862Q274 865 286 865Q308 865 324 856T340 832Q340 808 260 768T160 728Q156 728 152 733ZM104 522Q104 582 96 606Q92 614 68 621T32 629Q28 629 28 644Q28 660
30 662Q35 662 85 659T163 656Q171 656 291 662Q294 653 294 646Q294 629 290 629Q281 629 254 621T225 606Q217 575 217 518V142Q217 87 226 52Q228 45 253 38T288 30Q292 30 292 11Q292 3 290 -3Q170 3 163 3Q143 3 121 2T73 0T30 -3Q26 1 26 11Q26 30 30 30Q42
30 67 37T96 52Q104 83 104 136V522Z" />
<glyph unicode="&#xce;" glyph-name="Icircumflex" horiz-adv-x="323" d="M272 728Q253 728 160 788Q136 771 97 750T48 728Q38 728 38 747Q39 748 61 767T106 808Q132 833 148 855Q156 864 160 864Q165 864 172 855Q202 820 213 809Q230 793 246 779T271 756T282
747Q282 728 272 728ZM104 522Q104 582 96 606Q92 614 68 621T32 629Q28 629 28 644Q28 660 30 662Q35 662 85 659T163 656Q171 656 291 662Q294 653 294 646Q294 629 290 629Q281 629 254 621T225 606Q217 575 217 518V142Q217 87 226 52Q228 45 253 38T288 30Q292
30 292 11Q292 3 290 -3Q170 3 163 3Q143 3 121 2T73 0T30 -3Q26 1 26 11Q26 30 30 30Q42 30 67 37T96 52Q104 83 104 136V522Z" />
<glyph unicode="&#xcf;" glyph-name="Idieresis" horiz-adv-x="323" d="M458 764T458 790T476 834T520 852T564 834T582 790T564 746T520 728T476 746ZM252 764T252 790T270 834T314 852T358 834T376 790T358 746T314 728T270 746ZM104 522Q104 582 96 606Q92
614 68 621T32 629Q28 629 28 644Q28 660 30 662Q35 662 85 659T163 656Q171 656 291 662Q294 653 294 646Q294 629 290 629Q281 629 254 621T225 606Q217 575 217 518V142Q217 87 226 52Q228 45 253 38T288 30Q292 30 292 11Q292 3 290 -3Q170 3 163 3Q143 3 121
2T73 0T30 -3Q26 1 26 11Q26 30 30 30Q42 30 67 37T96 52Q104 83 104 136V522Z" />
<glyph unicode="&#xd0;" glyph-name="Eth" horiz-adv-x="718" d="M54 350H400Q406 350 406 338Q406 321 400 308H54Q48 308 48 322Q48 342 54 350ZM168 658Q204 658 263 658T342 658Q425 658 492 631T601 557T664 454T686 336Q686 266 664 205T598 98T489 24T340
-3Q324 -3 265 -1T169 1Q141 1 108 0T55 -2L36 -4Q32 0 32 12Q32 30 36 30Q48 30 73 36T103 52Q110 70 110 143V521Q110 578 103 603Q100 611 74 619T35 628Q31 628 31 643Q31 658 34 661Q101 658 168 658ZM223 530V138Q223 82 235 64Q244 56 287 52T356 48Q456
48 509 121T562 340Q562 411 540 471T468 569T350 608H344Q248 608 236 592Q223 575 223 530Z" />
<glyph unicode="&#xd1;" glyph-name="Ntilde" horiz-adv-x="753" d="M207 738Q199 738 199 757Q199 774 217 801Q254 847 300 847Q336 847 391 817T482 786Q500 786 524 811T551 837Q558 837 558 817Q558 799 541 773Q507 728 459 728Q423 728 368 758T277 789Q264
789 249 776T222 751T207 738ZM571 523Q571 576 561 603Q556 615 528 622T483 629Q479 629 479 643T481 662Q588 655 607 655Q633 655 674 658T725 662Q727 658 727 646Q727 629 723 629Q709 629 680 622T642 601Q631 574 631 518V139Q631 103 635 -1Q631 -5 613
-5Q597 -5 581 18L183 546V141Q183 81 191 59Q196 47 228 39T273 30Q276 30 276 16T275 -3Q155 3 150 3Q123 3 84 1T31 -3Q27 1 27 14Q27 30 31 30Q48 30 76 37T113 60Q123 81 123 144V536Q123 590 112 609Q108 616 78 622T33 628Q29 628 29 643T32 662Q137 657
151 657Q184 657 241 662Q260 626 310 556T449 370T569 210Q571 222 571 251V523Z" />
<glyph unicode="&#xd2;" glyph-name="Ograve" horiz-adv-x="693" d="M358 751T358 745T354 734T346 728Q327 728 247 768T166 832Q166 847 182 856T220 865Q232 865 238 862Q267 840 312 796ZM330 618Q244 618 199 540T153 350Q153 275 173 207T243 90T361 40Q446
40 492 119T539 309Q539 386 519 453T450 569T330 618ZM25 188T25 328T119 567T345 667T571 568T666 328T572 89T345 -10T119 89Z" />
<glyph unicode="&#xd3;" glyph-name="Oacute" horiz-adv-x="693" d="M333 739T333 745T378 795T453 862Q459 865 471 865Q493 865 509 856T525 832Q525 808 445 768T345 728Q341 728 337 733ZM330 618Q244 618 199 540T153 350Q153 275 173 207T243 90T361 40Q446
40 492 119T539 309Q539 386 519 453T450 569T330 618ZM25 188T25 328T119 567T345 667T571 568T666 328T572 89T345 -10T119 89Z" />
<glyph unicode="&#xd4;" glyph-name="Ocircumflex" horiz-adv-x="693" d="M457 728Q438 728 345 788Q321 771 282 750T233 728Q223 728 223 747Q224 748 246 767T291 808Q317 833 333 855Q341 864 345 864Q350 864 357 855Q387 820 398 809Q415 793 431 779T456
756T467 747Q467 728 457 728ZM330 618Q244 618 199 540T153 350Q153 275 173 207T243 90T361 40Q446 40 492 119T539 309Q539 386 519 453T450 569T330 618ZM25 188T25 328T119 567T345 667T571 568T666 328T572 89T345 -10T119 89Z" />
<glyph unicode="&#xd5;" glyph-name="Otilde" horiz-adv-x="693" d="M173 738Q165 738 165 757Q165 774 183 801Q220 847 266 847Q302 847 357 817T448 786Q466 786 490 811T517 837Q524 837 524 817Q524 799 507 773Q473 728 425 728Q389 728 334 758T243 789Q230
789 215 776T188 751T173 738ZM330 618Q244 618 199 540T153 350Q153 275 173 207T243 90T361 40Q446 40 492 119T539 309Q539 386 519 453T450 569T330 618ZM25 188T25 328T119 567T345 667T571 568T666 328T572 89T345 -10T119 89Z" />
<glyph unicode="&#xd6;" glyph-name="Odieresis" horiz-adv-x="693" d="M386 764T386 790T404 834T448 852T492 834T510 790T492 746T448 728T404 746ZM180 764T180 790T198 834T242 852T286 834T304 790T286 746T242 728T198 746ZM330 618Q244 618 199 540T153
350Q153 275 173 207T243 90T361 40Q446 40 492 119T539 309Q539 386 519 453T450 569T330 618ZM25 188T25 328T119 567T345 667T571 568T666 328T572 89T345 -10T119 89Z" />
<glyph unicode="&#xd7;" glyph-name="multiply" horiz-adv-x="419" d="M161 244Q164 246 160 250L28 382Q24 386 26 390Q31 401 43 415T62 432Q67 434 71 430L206 295Q208 292 212 296L348 430Q352 434 356 431Q361 429 374 414T391 388L390 382L258 250Q254 246
256 244L390 112L391 105Q387 95 375 78T359 59Q355 55 350 60L212 198Q208 202 205 198L66 58Q63 57 61 57Q54 57 48 66Q22 100 25 107L161 244Z" />
<glyph unicode="&#xd8;" glyph-name="Oslash" horiz-adv-x="698" d="M332 618Q245 618 200 539T154 350Q154 295 166 242T203 143T268 69T362 40Q420 40 461 79T521 179T540 309Q540 366 528 419T493 517T427 590T332 618ZM523 672Q528 670 536 667T551 658T556
650L159 -16Q149 -12 137 -5T126 7L523 672ZM260 667T346 667T507 622T624 498T668 328T625 158T507 35T347 -10T186 35T69 158T26 328T69 498T186 621Z" />
<glyph unicode="&#xd9;" glyph-name="Ugrave" horiz-adv-x="733" d="M379 751T379 745T375 734T367 728Q348 728 268 768T187 832Q187 847 203 856T241 865Q253 865 259 862Q288 840 333 796ZM160 656Q178 656 288 662Q290 654 290 646Q290 629 286 629Q277 629
250 622T222 606Q214 576 214 518V288Q214 185 258 124T382 62Q459 62 505 112T552 280V524Q552 585 542 604Q536 613 507 621T464 630Q460 630 460 644T462 662Q570 655 588 655Q613 655 654 658T706 662Q708 655 708 646Q708 630 704 630Q690 630 661 623T623
602Q612 577 612 519V284Q612 206 593 150T539 61T460 13T358 -2Q238 -2 169 70T100 304V522Q100 586 92 606Q88 614 64 621T28 629Q24 629 24 644T27 662Q154 656 160 656Z" />
<glyph unicode="&#xda;" glyph-name="Uacute" horiz-adv-x="733" d="M354 739T354 745T399 795T474 862Q480 865 492 865Q514 865 530 856T546 832Q546 808 466 768T366 728Q362 728 358 733ZM160 656Q178 656 288 662Q290 654 290 646Q290 629 286 629Q277 629
250 622T222 606Q214 576 214 518V288Q214 185 258 124T382 62Q459 62 505 112T552 280V524Q552 585 542 604Q536 613 507 621T464 630Q460 630 460 644T462 662Q570 655 588 655Q613 655 654 658T706 662Q708 655 708 646Q708 630 704 630Q690 630 661 623T623
602Q612 577 612 519V284Q612 206 593 150T539 61T460 13T358 -2Q238 -2 169 70T100 304V522Q100 586 92 606Q88 614 64 621T28 629Q24 629 24 644T27 662Q154 656 160 656Z" />
<glyph unicode="&#xdb;" glyph-name="Ucircumflex" horiz-adv-x="733" d="M478 728Q459 728 366 788Q342 771 303 750T254 728Q244 728 244 747Q245 748 267 767T312 808Q338 833 354 855Q362 864 366 864Q371 864 378 855Q408 820 419 809Q436 793 452 779T477
756T488 747Q488 728 478 728ZM160 656Q178 656 288 662Q290 654 290 646Q290 629 286 629Q277 629 250 622T222 606Q214 576 214 518V288Q214 185 258 124T382 62Q459 62 505 112T552 280V524Q552 585 542 604Q536 613 507 621T464 630Q460 630 460 644T462 662Q570
655 588 655Q613 655 654 658T706 662Q708 655 708 646Q708 630 704 630Q690 630 661 623T623 602Q612 577 612 519V284Q612 206 593 150T539 61T460 13T358 -2Q238 -2 169 70T100 304V522Q100 586 92 606Q88 614 64 621T28 629Q24 629 24 644T27 662Q154 656 160
656Z" />
<glyph unicode="&#xdc;" glyph-name="Udieresis" horiz-adv-x="733" d="M408 764T408 790T426 834T470 852T514 834T532 790T514 746T470 728T426 746ZM202 764T202 790T220 834T264 852T308 834T326 790T308 746T264 728T220 746ZM160 656Q178 656 288 662Q290
654 290 646Q290 629 286 629Q277 629 250 622T222 606Q214 576 214 518V288Q214 185 258 124T382 62Q459 62 505 112T552 280V524Q552 585 542 604Q536 613 507 621T464 630Q460 630 460 644T462 662Q570 655 588 655Q613 655 654 658T706 662Q708 655 708 646Q708
630 704 630Q690 630 661 623T623 602Q612 577 612 519V284Q612 206 593 150T539 61T460 13T358 -2Q238 -2 169 70T100 304V522Q100 586 92 606Q88 614 64 621T28 629Q24 629 24 644T27 662Q154 656 160 656Z" />
<glyph unicode="&#xdd;" glyph-name="Yacute" horiz-adv-x="657" d="M339 739T339 745T384 795T459 862Q465 865 477 865Q499 865 515 856T531 832Q531 808 451 768T351 728Q347 728 343 733ZM156 656Q174 656 294 662Q296 658 296 644T292 630Q276 630 256 623T236
602Q236 593 245 576L351 382Q356 377 361 384Q404 448 444 516T484 602Q484 613 466 621T417 630Q413 630 413 644T416 662Q517 656 536 656Q559 656 577 657T615 659T646 662Q648 654 648 646Q648 630 644 630Q629 630 603 621T564 597Q535 554 460 433T385 298V142Q385
83 393 52Q395 45 420 37T454 28Q458 28 458 12Q458 2 456 -4Q443 -3 418 -1T372 2T331 3Q304 3 258 0T200 -4Q196 0 196 12Q196 28 199 28Q211 28 236 36T264 52Q272 81 272 140V288Q272 293 266 307T243 351T215 402T176 472T136 543Q107 597 84 612Q74 619 55
624T26 630Q23 630 23 640T24 654Q48 656 156 656Z" />
<glyph unicode="&#xde;" glyph-name="Thorn" horiz-adv-x="564" d="M164 656Q182 656 292 662Q295 654 295 646Q295 629 291 629Q282 629 255 622T226 606Q219 576 219 522Q219 520 219 518T219 513T218 510Q218 504 222 504Q223 504 234 507T264 513T304 516Q331
516 358 510T415 491T468 457T505 405T520 334Q520 260 462 197T311 134Q289 134 268 141T240 159Q238 162 237 170T235 184T239 191Q261 182 295 182Q342 182 370 221T398 320Q398 466 288 466Q244 466 230 460Q224 457 221 445T218 391V140Q218 85 227 52Q229
45 255 38T290 30Q294 30 294 12Q294 2 292 -4Q279 -3 254 -1T206 2T164 3Q138 3 91 0T32 -4Q28 0 28 12Q28 30 32 30Q44 30 69 37T98 52Q105 79 105 136V522Q105 586 98 606Q93 614 69 621T33 629Q29 629 29 644T32 662Q158 656 164 656Z" />
<glyph unicode="&#xdf;" glyph-name="germandbls" horiz-adv-x="583" d="M490 563Q490 529 476 503T442 461T402 432T368 403T354 369Q354 339 379 315T447 268Q556 211 556 134Q556 75 517 34T421 -8Q379 -8 341 9T294 41Q294 106 330 106Q347 106 358 95T376
71T393 47T421 36Q441 36 452 58T464 103Q464 130 445 151T398 187T342 219T295 264T275 330Q275 357 287 377T316 413T350 444T379 487T391 549Q391 597 366 624T294 651Q266 651 248 636T222 593T212 538T209 475L210 137Q210 86 218 50Q219 43 241 35T272 27Q275
27 275 14T274 -4Q263 -3 222 0T158 3Q134 3 93 0T40 -4Q37 -1 37 12Q37 24 41 24Q52 24 73 31T96 46Q105 81 105 135Q106 273 106 361Q106 369 101 369H48Q45 369 45 375Q45 385 50 403T60 421H101Q106 421 106 427V445Q106 568 164 631T310 694Q386 694 438 660T490
563Z" />
<glyph unicode="&#xe0;" glyph-name="agrave" horiz-adv-x="452" d="M70 898Q70 902 73 907T87 918T114 924Q140 924 148 916Q165 896 187 863T225 806T240 778Q240 773 236 768T226 762Q213 762 142 817T70 898ZM192 58Q219 58 238 72T258 104V206Q251 203 229
196T194 184T166 170T143 148T135 120Q135 88 151 73T192 58ZM237 442Q299 442 330 410T361 298V101Q361 81 370 71T394 60Q409 60 428 73Q434 71 434 62Q434 42 428 32Q413 20 388 7T340 -6Q317 -6 295 11T266 48Q265 47 259 42T241 28T215 12T181 -1T141 -7Q91
-7 60 20T28 96Q28 120 39 141T67 175T110 202T156 221T206 237T249 250Q258 254 258 266V321Q258 356 242 376T199 396Q169 396 152 378T135 325Q135 305 120 296T86 286Q49 286 34 310Q34 358 99 400T237 442Z" />
<glyph unicode="&#xe1;" glyph-name="aacute" horiz-adv-x="452" d="M294 668Q310 668 320 663T333 652T336 642Q336 617 265 562T181 506Q176 506 171 511T166 522T200 579T260 660Q268 668 294 668ZM192 58Q219 58 238 72T258 104V206Q251 203 229 196T194 184T166
170T143 148T135 120Q135 88 151 73T192 58ZM237 442Q299 442 330 410T361 298V101Q361 81 370 71T394 60Q409 60 428 73Q434 71 434 62Q434 42 428 32Q413 20 388 7T340 -6Q317 -6 295 11T266 48Q265 47 259 42T241 28T215 12T181 -1T141 -7Q91 -7 60 20T28 96Q28
120 39 141T67 175T110 202T156 221T206 237T249 250Q258 254 258 266V321Q258 356 242 376T199 396Q169 396 152 378T135 325Q135 305 120 296T86 286Q49 286 34 310Q34 358 99 400T237 442Z" />
<glyph unicode="&#xe2;" glyph-name="acircumflex" horiz-adv-x="452" d="M309 497Q301 497 268 521T209 567Q186 546 152 522T109 497Q100 497 100 521Q149 577 160 591Q175 610 198 646Q203 655 209 655Q213 655 219 646Q252 598 256 593Q271 574 285 557T308
531T318 521Q318 497 309 497ZM192 58Q219 58 238 72T258 104V206Q251 203 229 196T194 184T166 170T143 148T135 120Q135 88 151 73T192 58ZM237 442Q299 442 330 410T361 298V101Q361 81 370 71T394 60Q409 60 428 73Q434 71 434 62Q434 42 428 32Q413 20 388
7T340 -6Q317 -6 295 11T266 48Q265 47 259 42T241 28T215 12T181 -1T141 -7Q91 -7 60 20T28 96Q28 120 39 141T67 175T110 202T156 221T206 237T249 250Q258 254 258 266V321Q258 356 242 376T199 396Q169 396 152 378T135 325Q135 305 120 296T86 286Q49 286
34 310Q34 358 99 400T237 442Z" />
<glyph unicode="&#xe3;" glyph-name="atilde" horiz-adv-x="452" d="M58 771Q51 771 51 788Q51 804 67 827Q97 867 134 867Q163 867 208 841T283 814Q298 814 318 836T340 859Q345 859 345 841Q345 821 331 801Q303 762 265 762Q235 762 190 788T115 815Q101 815
81 793T58 771ZM192 58Q219 58 238 72T258 104V206Q251 203 229 196T194 184T166 170T143 148T135 120Q135 88 151 73T192 58ZM237 442Q299 442 330 410T361 298V101Q361 81 370 71T394 60Q409 60 428 73Q434 71 434 62Q434 42 428 32Q413 20 388 7T340 -6Q317
-6 295 11T266 48Q265 47 259 42T241 28T215 12T181 -1T141 -7Q91 -7 60 20T28 96Q28 120 39 141T67 175T110 202T156 221T206 237T249 250Q258 254 258 266V321Q258 356 242 376T199 396Q169 396 152 378T135 325Q135 305 120 296T86 286Q49 286 34 310Q34 358
99 400T237 442Z" />
<glyph unicode="&#xe4;" glyph-name="adieresis" horiz-adv-x="452" d="M247 542T247 566T264 607T305 625T346 608T364 566T347 525T305 508T264 525ZM45 542T45 566T62 607T103 625T144 608T162 566T145 525T103 508T62 525ZM192 58Q219 58 238 72T258 104V206Q251
203 229 196T194 184T166 170T143 148T135 120Q135 88 151 73T192 58ZM237 442Q299 442 330 410T361 298V101Q361 81 370 71T394 60Q409 60 428 73Q434 71 434 62Q434 42 428 32Q413 20 388 7T340 -6Q317 -6 295 11T266 48Q265 47 259 42T241 28T215 12T181 -1T141
-7Q91 -7 60 20T28 96Q28 120 39 141T67 175T110 202T156 221T206 237T249 250Q258 254 258 266V321Q258 356 242 376T199 396Q169 396 152 378T135 325Q135 305 120 296T86 286Q49 286 34 310Q34 358 99 400T237 442Z" />
<glyph unicode="&#xe5;" glyph-name="aring" horiz-adv-x="452" d="M155 629T155 605T172 564T213 547T253 564T270 605T254 645T213 662T172 646ZM114 565T114 605T143 674T213 703T282 674T311 605Q311 564 282 535T213 506Q172 506 143 535ZM192 58Q219 58
238 72T258 104V206Q251 203 229 196T194 184T166 170T143 148T135 120Q135 88 151 73T192 58ZM237 442Q299 442 330 410T361 298V101Q361 81 370 71T394 60Q409 60 428 73Q434 71 434 62Q434 42 428 32Q413 20 388 7T340 -6Q317 -6 295 11T266 48Q265 47 259 42T241
28T215 12T181 -1T141 -7Q91 -7 60 20T28 96Q28 120 39 141T67 175T110 202T156 221T206 237T249 250Q258 254 258 266V321Q258 356 242 376T199 396Q169 396 152 378T135 325Q135 305 120 296T86 286Q49 286 34 310Q34 358 99 400T237 442Z" />
<glyph unicode="&#xe6;" glyph-name="ae" horiz-adv-x="662" d="M377 204Q377 142 409 103T504 63Q537 63 566 74T611 97T628 108T631 106T635 101T638 94Q638 81 634 74Q614 45 568 19T475 -7Q377 -7 319 67Q254 -7 146 -7Q93 -7 63 23T32 97Q32 116 39 132T55
161T83 184T114 201T151 216T187 227T224 236T256 244Q265 247 265 259V326Q265 357 249 376T208 396Q180 396 160 372T140 313Q140 299 124 293T86 286Q67 286 55 295T42 320Q42 362 102 402T231 443Q317 443 348 395Q406 442 474 442Q520 442 555 424T608 377T636
319T646 262Q646 247 638 243T608 235Q461 218 384 211Q377 211 377 204ZM266 104V195Q187 178 163 157Q142 140 142 115Q142 87 158 72T199 57Q226 57 246 71T266 104ZM540 290Q540 325 522 360T471 396Q428 396 403 352T377 268Q377 262 384 262Q512 274 534
280Q540 282 540 290Z" />
<glyph unicode="&#xe7;" glyph-name="ccedilla" horiz-adv-x="435" d="M223 -27Q241 -26 245 -26Q266 -26 280 -41T294 -76Q294 -111 267 -132T198 -153Q170 -153 158 -141Q155 -129 155 -125Q155 -120 159 -116T166 -111T183 -118T209 -125Q229 -125 239 -116T250
-94Q250 -80 242 -72T222 -63Q209 -63 194 -69Q192 -69 187 -64T182 -55Q187 -46 198 -26T212 -2H239L223 -27ZM242 442Q295 442 336 425T396 386Q396 352 385 330T350 307Q331 307 320 317T296 350Q273 396 229 396Q186 396 161 353T135 243Q135 153 172 110T266
66Q281 66 295 67T321 72T342 79T360 88T374 96T386 104T394 110Q396 109 399 104T402 94Q402 83 396 75Q381 48 337 21T239 -6Q150 -6 88 59T25 218Q25 309 85 375T242 442Z" />
<glyph unicode="&#xe8;" glyph-name="egrave" horiz-adv-x="436" d="M94 898Q94 902 97 907T111 918T138 924Q164 924 172 916Q189 896 211 863T249 806T264 778Q264 773 260 768T250 762Q237 762 166 817T94 898ZM225 396Q201 396 182 382T153 348T139 311T134
281Q134 274 140 274H302Q311 274 311 289Q311 324 288 360T225 396ZM232 442Q279 442 316 424T374 377T406 318T417 259Q417 237 410 232T379 226H140Q133 226 133 220Q133 184 146 150T190 91T266 66Q281 66 295 67T321 72T342 79T360 88T374 96T386 104T394
110Q396 109 399 104T402 94Q402 83 396 75Q381 48 337 21T238 -6Q151 -6 88 58T25 215Q25 316 83 379T232 442Z" />
<glyph unicode="&#xe9;" glyph-name="eacute" horiz-adv-x="436" d="M328 668Q344 668 354 663T367 652T370 642Q370 617 299 562T215 506Q210 506 205 511T200 522T234 579T294 660Q302 668 328 668ZM225 396Q201 396 182 382T153 348T139 311T134 281Q134 274
140 274H302Q311 274 311 289Q311 324 288 360T225 396ZM232 442Q279 442 316 424T374 377T406 318T417 259Q417 237 410 232T379 226H140Q133 226 133 220Q133 184 146 150T190 91T266 66Q281 66 295 67T321 72T342 79T360 88T374 96T386 104T394 110Q396 109
399 104T402 94Q402 83 396 75Q381 48 337 21T238 -6Q151 -6 88 58T25 215Q25 316 83 379T232 442Z" />
<glyph unicode="&#xea;" glyph-name="ecircumflex" horiz-adv-x="436" d="M321 497Q313 497 280 521T221 567Q198 546 164 522T121 497Q112 497 112 521Q161 577 172 591Q187 610 210 646Q215 655 221 655Q225 655 231 646Q264 598 268 593Q283 574 297 557T320
531T330 521Q330 497 321 497ZM225 396Q201 396 182 382T153 348T139 311T134 281Q134 274 140 274H302Q311 274 311 289Q311 324 288 360T225 396ZM232 442Q279 442 316 424T374 377T406 318T417 259Q417 237 410 232T379 226H140Q133 226 133 220Q133 184 146
150T190 91T266 66Q281 66 295 67T321 72T342 79T360 88T374 96T386 104T394 110Q396 109 399 104T402 94Q402 83 396 75Q381 48 337 21T238 -6Q151 -6 88 58T25 215Q25 316 83 379T232 442Z" />
<glyph unicode="&#xeb;" glyph-name="edieresis" horiz-adv-x="436" d="M259 542T259 566T276 607T317 625T358 608T376 566T359 525T317 508T276 525ZM57 542T57 566T74 607T115 625T156 608T174 566T157 525T115 508T74 525ZM225 396Q201 396 182 382T153 348T139
311T134 281Q134 274 140 274H302Q311 274 311 289Q311 324 288 360T225 396ZM232 442Q279 442 316 424T374 377T406 318T417 259Q417 237 410 232T379 226H140Q133 226 133 220Q133 184 146 150T190 91T266 66Q281 66 295 67T321 72T342 79T360 88T374 96T386
104T394 110Q396 109 399 104T402 94Q402 83 396 75Q381 48 337 21T238 -6Q151 -6 88 58T25 215Q25 316 83 379T232 442Z" />
<glyph unicode="&#xec;" glyph-name="igrave" horiz-adv-x="300" d="M278 898Q278 902 281 907T295 918T322 924Q348 924 356 916Q373 896 395 863T433 806T448 778Q448 773 444 768T434 762Q421 762 350 817T278 898ZM203 144Q203 82 210 54Q212 47 234 39T265
30Q268 30 268 16T267 -3Q253 -2 230 -1T187 2T151 3Q132 3 113 2T71 0T33 -3Q29 1 29 15T33 30Q44 30 66 38T91 54Q99 89 99 128V289Q99 335 83 353Q75 363 61 367T36 373T26 376Q26 406 31 406Q95 413 193 437Q202 440 203 440Q210 440 210 420Q210 414 207 384T203
334V144Z" />
<glyph unicode="&#xed;" glyph-name="iacute" horiz-adv-x="300" d="M212 924Q228 924 238 919T251 908T254 898Q254 873 183 818T99 762Q94 762 89 767T84 778T118 835T178 916Q186 924 212 924ZM203 144Q203 82 210 54Q212 47 234 39T265 30Q268 30 268 16T267
-3Q253 -2 230 -1T187 2T151 3Q132 3 113 2T71 0T33 -3Q29 1 29 15T33 30Q44 30 66 38T91 54Q99 89 99 128V289Q99 335 83 353Q75 363 61 367T36 373T26 376Q26 406 31 406Q95 413 193 437Q202 440 203 440Q210 440 210 420Q210 414 207 384T203 334V144Z" />
<glyph unicode="&#xee;" glyph-name="icircumflex" horiz-adv-x="300" d="M495 497Q487 497 454 521T395 567Q372 546 338 522T295 497Q286 497 286 521Q335 577 346 591Q361 610 384 646Q389 655 395 655Q399 655 405 646Q438 598 442 593Q457 574 471 557T494
531T504 521Q504 497 495 497ZM203 144Q203 82 210 54Q212 47 234 39T265 30Q268 30 268 16T267 -3Q253 -2 230 -1T187 2T151 3Q132 3 113 2T71 0T33 -3Q29 1 29 15T33 30Q44 30 66 38T91 54Q99 89 99 128V289Q99 335 83 353Q75 363 61 367T36 373T26 376Q26 406
31 406Q95 413 193 437Q202 440 203 440Q210 440 210 420Q210 414 207 384T203 334V144Z" />
<glyph unicode="&#xef;" glyph-name="idieresis" horiz-adv-x="300" d="M464 624T488 624T529 607T547 565T529 524T487 507T446 524T428 566T446 607ZM285 624T309 624T350 607T368 565T350 524T308 507T267 524T249 566T267 607ZM203 144Q203 82 210 54Q212
47 234 39T265 30Q268 30 268 16T267 -3Q253 -2 230 -1T187 2T151 3Q132 3 113 2T71 0T33 -3Q29 1 29 15T33 30Q44 30 66 38T91 54Q99 89 99 128V289Q99 335 83 353Q75 363 61 367T36 373T26 376Q26 406 31 406Q95 413 193 437Q202 440 203 440Q210 440 210 420Q210
414 207 384T203 334V144Z" />
<glyph unicode="&#xf0;" glyph-name="eth" horiz-adv-x="517" d="M378 701Q402 673 396 668L131 500Q107 528 114 534L378 701ZM246 442Q270 442 295 438T330 426Q284 589 77 663Q77 671 80 681T89 692Q140 686 192 666T294 610T384 526T447 411T472 266Q472 136
410 65T257 -6Q163 -6 96 59T28 216Q28 270 55 322T134 408T246 442ZM241 395Q193 395 168 349T142 234Q142 155 173 98T258 40Q307 40 332 86T357 210Q356 299 343 328Q328 360 300 377T241 395Z" />
<glyph unicode="&#xf1;" glyph-name="ntilde" horiz-adv-x="584" d="M145 771Q138 771 138 788Q138 804 154 827Q184 867 221 867Q250 867 295 841T370 814Q385 814 405 836T427 859Q432 859 432 841Q432 821 418 801Q390 762 352 762Q322 762 277 788T202 815Q188
815 168 793T145 771ZM354 442Q483 442 483 237V142Q483 81 490 52Q492 45 517 38T552 30Q555 30 555 16T554 -4Q548 -3 502 0T432 3Q408 3 366 0T314 -4Q310 0 310 15T314 30Q325 30 347 37T372 52Q380 82 380 125V220Q380 303 358 336T286 369Q254 369 230 352T206
314V142Q206 81 213 52Q215 45 239 38T272 30Q276 30 276 16T275 -4Q267 -3 223 0T155 3Q131 3 86 0T32 -4Q28 0 28 15T32 30Q44 30 68 37T95 52Q102 82 102 125V288Q102 335 86 352Q78 362 64 367T40 373T30 376Q30 405 35 406Q81 410 196 436Q197 437 198 437T201
438T204 438Q208 438 211 431T214 420Q210 392 210 384Q210 380 211 379Q212 379 216 382Q240 406 277 424T354 442Z" />
<glyph unicode="&#xf2;" glyph-name="ograve" horiz-adv-x="507" d="M96 898Q96 902 99 907T113 918T140 924Q166 924 174 916Q191 896 213 863T251 806T266 778Q266 773 262 768T252 762Q239 762 168 817T96 898ZM240 395Q193 395 167 350T141 241Q141 160 173
100T264 40Q311 40 337 86T364 194Q364 246 351 290T309 365T240 395ZM253 442Q347 442 413 377T480 218Q480 125 415 59T254 -7Q159 -7 93 59T27 218Q27 312 92 377T253 442Z" />
<glyph unicode="&#xf3;" glyph-name="oacute" horiz-adv-x="507" d="M366 668Q382 668 392 663T405 652T408 642Q408 617 337 562T253 506Q248 506 243 511T238 522T272 579T332 660Q340 668 366 668ZM240 395Q193 395 167 350T141 241Q141 160 173 100T264 40Q311
40 337 86T364 194Q364 246 351 290T309 365T240 395ZM253 442Q347 442 413 377T480 218Q480 125 415 59T254 -7Q159 -7 93 59T27 218Q27 312 92 377T253 442Z" />
<glyph unicode="&#xf4;" glyph-name="ocircumflex" horiz-adv-x="507" d="M357 497Q349 497 316 521T257 567Q234 546 200 522T157 497Q148 497 148 521Q197 577 208 591Q223 610 246 646Q251 655 257 655Q261 655 267 646Q300 598 304 593Q319 574 333 557T356
531T366 521Q366 497 357 497ZM240 395Q193 395 167 350T141 241Q141 160 173 100T264 40Q311 40 337 86T364 194Q364 246 351 290T309 365T240 395ZM253 442Q347 442 413 377T480 218Q480 125 415 59T254 -7Q159 -7 93 59T27 218Q27 312 92 377T253 442Z" />
<glyph unicode="&#xf5;" glyph-name="otilde" horiz-adv-x="507" d="M112 771Q105 771 105 788Q105 804 121 827Q151 867 188 867Q217 867 262 841T337 814Q352 814 372 836T394 859Q399 859 399 841Q399 821 385 801Q357 762 319 762Q289 762 244 788T169 815Q155
815 135 793T112 771ZM240 395Q193 395 167 350T141 241Q141 160 173 100T264 40Q311 40 337 86T364 194Q364 246 351 290T309 365T240 395ZM253 442Q347 442 413 377T480 218Q480 125 415 59T254 -7Q159 -7 93 59T27 218Q27 312 92 377T253 442Z" />
<glyph unicode="&#xf6;" glyph-name="odieresis" horiz-adv-x="507" d="M295 542T295 566T312 607T353 625T394 608T412 566T395 525T353 508T312 525ZM93 542T93 566T110 607T151 625T192 608T210 566T193 525T151 508T110 525ZM240 395Q193 395 167 350T141
241Q141 160 173 100T264 40Q311 40 337 86T364 194Q364 246 351 290T309 365T240 395ZM253 442Q347 442 413 377T480 218Q480 125 415 59T254 -7Q159 -7 93 59T27 218Q27 312 92 377T253 442Z" />
<glyph unicode="&#xf7;" glyph-name="divide" horiz-adv-x="524" d="M282 384T260 384T223 397T205 434V438Q205 459 221 475T260 492T297 479T315 443V438Q315 418 299 401ZM260 0Q238 0 223 14T205 52V56Q205 77 221 94T260 112T297 97T315 58V56Q315 35 298
18T260 0ZM26 222Q26 232 29 256T40 280H489Q496 279 496 270Q496 252 488 220Q487 217 485 216T482 214L480 213H32Q32 213 28 215Q26 218 26 222Z" />
<glyph unicode="&#xf8;" glyph-name="oslash" horiz-adv-x="511" d="M268 40Q318 40 342 86T367 195Q367 267 344 320L203 63Q229 40 268 40ZM246 399Q195 399 170 352T144 242Q144 167 170 112L312 373Q284 399 246 399ZM256 445Q302 445 342 428L360 459Q364
463 370 462Q382 462 402 442Q406 438 406 432L390 402Q433 370 457 322T482 218Q482 125 417 59T256 -7Q212 -7 173 8L153 -27Q151 -31 142 -28Q121 -21 113 -11L108 0L126 33Q82 64 56 113T30 218Q30 312 95 378T256 445Z" />
<glyph unicode="&#xf9;" glyph-name="ugrave" horiz-adv-x="555" d="M154 898Q154 902 157 907T171 918T198 924Q224 924 232 916Q249 896 271 863T309 806T324 778Q324 773 320 768T310 762Q297 762 226 817T154 898ZM464 334V136Q464 88 472 66Q475 61 483 58T501
54T517 53T526 52Q530 51 530 43Q530 39 528 30T522 20Q508 20 487 17T445 10T407 2T378 -4T367 -6Q360 -6 360 10V54Q359 59 357 59Q334 34 296 14T217 -6Q183 -6 158 11T118 55T97 113T90 176V288Q90 335 74 352Q65 362 51 367T27 373T17 376Q17 405 22 406Q51
408 104 418T183 436Q184 436 187 437T191 438Q196 438 198 431T201 420Q192 352 192 332V212Q192 134 214 100T285 66Q317 66 339 85T361 123V288Q361 335 345 352Q337 362 323 367T298 373T288 376Q288 405 294 406Q322 408 375 418T454 436Q455 436 458 437T462
438Q467 438 470 431T472 420Q464 352 464 334Z" />
<glyph unicode="&#xfa;" glyph-name="uacute" horiz-adv-x="555" d="M374 668Q390 668 400 663T413 652T416 642Q416 617 345 562T261 506Q256 506 251 511T246 522T280 579T340 660Q348 668 374 668ZM464 334V136Q464 88 472 66Q475 61 483 58T501 54T517 53T526
52Q530 51 530 43Q530 39 528 30T522 20Q508 20 487 17T445 10T407 2T378 -4T367 -6Q360 -6 360 10V54Q359 59 357 59Q334 34 296 14T217 -6Q183 -6 158 11T118 55T97 113T90 176V288Q90 335 74 352Q65 362 51 367T27 373T17 376Q17 405 22 406Q51 408 104 418T183
436Q184 436 187 437T191 438Q196 438 198 431T201 420Q192 352 192 332V212Q192 134 214 100T285 66Q317 66 339 85T361 123V288Q361 335 345 352Q337 362 323 367T298 373T288 376Q288 405 294 406Q322 408 375 418T454 436Q455 436 458 437T462 438Q467 438
470 431T472 420Q464 352 464 334Z" />
<glyph unicode="&#xfb;" glyph-name="ucircumflex" horiz-adv-x="555" d="M373 497Q365 497 332 521T273 567Q250 546 216 522T173 497Q164 497 164 521Q213 577 224 591Q239 610 262 646Q267 655 273 655Q277 655 283 646Q316 598 320 593Q335 574 349 557T372
531T382 521Q382 497 373 497ZM464 334V136Q464 88 472 66Q475 61 483 58T501 54T517 53T526 52Q530 51 530 43Q530 39 528 30T522 20Q508 20 487 17T445 10T407 2T378 -4T367 -6Q360 -6 360 10V54Q359 59 357 59Q334 34 296 14T217 -6Q183 -6 158 11T118 55T97
113T90 176V288Q90 335 74 352Q65 362 51 367T27 373T17 376Q17 405 22 406Q51 408 104 418T183 436Q184 436 187 437T191 438Q196 438 198 431T201 420Q192 352 192 332V212Q192 134 214 100T285 66Q317 66 339 85T361 123V288Q361 335 345 352Q337 362 323 367T298
373T288 376Q288 405 294 406Q322 408 375 418T454 436Q455 436 458 437T462 438Q467 438 470 431T472 420Q464 352 464 334Z" />
<glyph unicode="&#xfc;" glyph-name="udieresis" horiz-adv-x="555" d="M323 542T323 566T340 607T381 625T422 608T440 566T423 525T381 508T340 525ZM121 542T121 566T138 607T179 625T220 608T238 566T221 525T179 508T138 525ZM464 334V136Q464 88 472 66Q475
61 483 58T501 54T517 53T526 52Q530 51 530 43Q530 39 528 30T522 20Q508 20 487 17T445 10T407 2T378 -4T367 -6Q360 -6 360 10V54Q359 59 357 59Q334 34 296 14T217 -6Q183 -6 158 11T118 55T97 113T90 176V288Q90 335 74 352Q65 362 51 367T27 373T17 376Q17
405 22 406Q51 408 104 418T183 436Q184 436 187 437T191 438Q196 438 198 431T201 420Q192 352 192 332V212Q192 134 214 100T285 66Q317 66 339 85T361 123V288Q361 335 345 352Q337 362 323 367T298 373T288 376Q288 405 294 406Q322 408 375 418T454 436Q455
436 458 437T462 438Q467 438 470 431T472 420Q464 352 464 334Z" />
<glyph unicode="&#xfd;" glyph-name="yacute" horiz-adv-x="524" d="M407 668Q423 668 433 663T446 652T449 642Q449 617 378 562T294 506Q289 506 284 511T279 522T313 579T373 660Q381 668 407 668ZM134 432Q156 432 197 435T248 438Q250 431 250 420Q250 406
246 406Q236 406 215 399T192 382V376Q194 360 285 148Q293 166 324 246T360 339Q366 356 366 370Q366 383 350 394T302 406Q298 406 298 421Q298 434 302 438Q314 438 351 435T412 432Q433 432 463 435T508 438Q512 432 512 422Q512 406 508 406Q494 406 468 396T433
366L250 -76Q188 -222 101 -222Q75 -222 61 -208T47 -176Q47 -150 66 -137Q170 -137 203 -55Q227 5 230 13L84 353Q76 371 72 376Q62 391 43 398T10 406Q6 406 6 420Q6 436 9 438Q15 438 62 435T134 432Z" />
<glyph unicode="&#xfe;" glyph-name="thorn" horiz-adv-x="540" d="M304 441Q369 441 419 408T492 328T516 230Q516 127 447 60T282 -8Q253 -8 211 6Q207 6 207 -8V-76Q207 -138 214 -166Q216 -174 241 -181T276 -189Q279 -189 279 -203T278 -222Q272 -222 226
-219T156 -216Q132 -216 87 -219T34 -222Q30 -218 30 -204T34 -189Q45 -189 69 -182T96 -166Q104 -137 104 -94V538Q104 580 98 608Q93 624 46 624H38Q32 624 32 640Q32 656 38 656Q68 659 96 664T143 674T175 684T196 691T204 694H206Q210 694 214 689T218 678Q207
639 207 584V412Q207 407 210 407Q225 419 252 430T304 441ZM281 388Q248 388 228 369T207 318V112Q207 79 234 60T292 40Q338 40 370 82T402 200Q402 281 370 334T281 388Z" />
<glyph unicode="&#xff;" glyph-name="ydieresis" horiz-adv-x="524" d="M337 542T337 566T354 607T395 625T436 608T454 566T437 525T395 508T354 525ZM135 542T135 566T152 607T193 625T234 608T252 566T235 525T193 508T152 525ZM134 432Q156 432 197 435T248
438Q250 431 250 420Q250 406 246 406Q236 406 215 399T192 382V376Q194 360 285 148Q293 166 324 246T360 339Q366 356 366 370Q366 383 350 394T302 406Q298 406 298 421Q298 434 302 438Q314 438 351 435T412 432Q433 432 463 435T508 438Q512 432 512 422Q512
406 508 406Q494 406 468 396T433 366L250 -76Q188 -222 101 -222Q75 -222 61 -208T47 -176Q47 -150 66 -137Q170 -137 203 -55Q227 5 230 13L84 353Q76 371 72 376Q62 391 43 398T10 406Q6 406 6 420Q6 436 9 438Q15 438 62 435T134 432Z" />
<glyph unicode="&#x2013;" glyph-name="endash" horiz-adv-x="499" d="M28 206Q28 217 31 241T42 265H467Q473 265 473 256Q473 240 464 204Q463 201 462 200T458 198L457 197H34Q34 197 30 199Q28 202 28 206Z" />
<glyph unicode="&#x2014;" glyph-name="emdash" horiz-adv-x="832" d="M25 211Q25 222 28 246T39 270H802Q808 270 808 261Q808 241 800 209Q799 206 797 205T794 202H792H31Q31 202 27 204Q25 207 25 211Z" />
<glyph unicode="&#x2018;" glyph-name="quoteleft" horiz-adv-x="160" d="M16 555Q16 581 26 606T52 649T83 679T111 699T126 706Q132 706 141 699T154 684Q127 668 110 647T89 614T84 594Q84 581 104 559T125 522Q125 504 105 491T60 478Q45 478 31 485Q16 507 16 555Z" />
<glyph unicode="&#x2019;" glyph-name="quoteright" horiz-adv-x="162" d="M151 630Q151 604 141 579T115 536T84 506T57 486T42 479Q36 479 27 486T14 501Q41 517 58 538T79 572T84 592Q84 605 63 627T42 664Q42 681 62 694T108 707Q122 707 136 700Q151 678 151 630Z" />
<glyph unicode="&#x201a;" glyph-name="quotesinglbase" horiz-adv-x="160" d="M148 48Q148 22 138 -3T112 -46T81 -76T54 -95T39 -102Q33 -102 24 -96T11 -81Q38 -65 55 -44T77 -10T82 10Q82 23 61 45T40 82Q40 99 60 112T106 125Q120 125 134 118Q148 98 148 48Z" />
<glyph unicode="&#x201c;" glyph-name="quotedblleft" horiz-adv-x="320" d="M162 555Q162 581 172 606T198 649T229 679T257 699T272 706Q278 706 287 699T300 684Q273 668 256 647T234 614T229 594Q229 581 249 559T270 522Q270 504 250 491T206 478Q190 478
176 485Q162 505 162 555ZM16 555Q16 581 26 606T52 649T83 679T111 699T126 706Q132 706 141 699T154 684Q127 668 110 647T89 614T84 594Q84 581 104 559T125 522Q125 504 105 491T60 478Q45 478 31 485Q16 507 16 555Z" />
<glyph unicode="&#x201d;" glyph-name="quotedblright" horiz-adv-x="321" d="M226 630Q226 604 216 579T190 536T159 506T131 486T116 479Q110 479 101 486T89 501Q116 517 133 538T154 572T159 592Q159 605 139 627T118 664Q118 682 138 694T183 707Q198 707
212 700Q226 680 226 630ZM228 630Q228 680 214 700Q200 707 186 707Q161 707 141 694T120 664Q120 650 141 628T162 592Q162 585 158 573T136 539T91 501Q94 493 103 486T119 479Q122 479 133 485T161 505T192 536T217 578T228 630Z" />
<glyph unicode="&#x201e;" glyph-name="quotedblbase" horiz-adv-x="314" d="M224 47Q224 21 214 -4T188 -47T157 -77T129 -97T114 -104Q108 -104 99 -97T87 -82Q114 -66 131 -45T152 -12T157 8Q157 21 137 43T116 80Q116 98 136 111T181 124Q196 124 210 117Q224
97 224 47ZM226 48Q226 98 212 118Q198 125 184 125Q159 125 139 112T118 82Q118 68 139 46T160 10Q160 3 156 -9T134 -43T89 -81Q92 -89 101 -95T117 -102Q120 -102 131 -96T159 -76T190 -46T215 -4T226 48Z" />
<glyph unicode="&#x2022;" glyph-name="bullet" horiz-adv-x="409" d="M79 212T79 263T115 351T203 388T290 351T326 263T290 176T203 139T116 175Z" />
<glyph unicode="&#x2039;" glyph-name="guilsinglleft" horiz-adv-x="291" d="M120 248Q124 244 158 209T200 167Q262 107 266 100Q267 97 267 94Q267 83 238 73Q237 75 219 91T149 146T32 227Q25 230 25 241Q25 259 33 268Q70 290 104 314T161 356T202 390T230
414L239 423Q250 420 259 414T268 401Q268 392 200 328L120 248Z" />
<glyph unicode="&#x203a;" glyph-name="guilsinglright" horiz-adv-x="294" d="M173 248Q173 248 93 328Q25 392 25 401Q25 407 34 413T54 423L64 414Q73 405 90 390T131 357T189 314T260 268Q268 259 268 241Q268 230 261 227Q195 185 144 147T75 92T55 73Q26
83 26 94Q26 103 74 149Q86 160 93 167Q101 174 135 209T173 248Z" />
</font>
</defs>
</svg>
